Статистика раздачи
Размер:  331 MB   |    Зарегистрирован:  3 дня   |    Скачан:  0 раз

Полного источника не было: Никогда

 
   
 
 

craft ®

Пол:
Не указан
Стаж:
4 дня
Сообщений:
66

Брюс Ли - Потерянное Интервью / Bruce Lee - The Lost Interview
Дата/Год выпуска: 1971
Страна: Гонконг
Жанр: Интервью, ТВ-Передача, Документальный
Продолжительность: 00:24:56
Перевод: Двухголосый закадровый
Русские субтитры: есть
Формат субтитров: softsub (SSA/ASS)
Доп. информация о субтитрах: Русские, Английские в составе контейнера.
Оригинальная аудиодорожка: английский
Описание: Потерянное интервью с Брюсом Ли - которое было снято в Гонконге в 1971 году.
Семпл: Sendfile
качество: DVDRip
формат: MKV
Видео: MPEG-4, 720x576, 29.970fps, 1 434 Kbps
Аудио 1: [Озвучка] AAC, 48.0 KHz, 2 channels, 256 Kbps
Аудио 2: [Оригинал] AAC, 44.0 KHz, 2 channels, 160 Kbps

MediaInfo

General
Unique ID : 175175160441669168405475358307408142845 (0x83C9823A3646CE00A7020005FD4BE1FD)
Complete name : O:\Bruce Lee.The Lost Interview.1971.UNCENSORED.DVD-Rip.mkv
Format : Matroska
Format version : Version 4 / Version 2
File size : 331 MiB
Duration : 24 min 56 s
Overall bit rate : 1 854 kb/s
Encoded date : UTC 2018-01-22 14:55:58
Writing application : mkvmerge v15.0.0 ('Duel with the Devil') 64-bit
Writing library : libebml v1.3.5 + libmatroska v1.4.5
Video
ID : 1
Format : MPEG-4 Visual
Format profile : Simple@L1
Format settings, BVOP : No
Format settings, QPel : No
Format settings, GMC : No warppoints
Format settings, Matrix : Default (H.263)
Codec ID : V_MS/VFW/FOURCC / DIVX
Codec ID/Info : Project Mayo
Codec ID/Hint : DivX 4
Duration : 24 min 56 s
Bit rate : 1 434 kb/s
Width : 720 pixels
Height : 576 pixels
Display aspect ratio : 4:3
Frame rate mode : Variable
Frame rate : 29.970 FPS
Color space : YUV
Chroma subsampling : 4:2:0
Bit depth : 8 bits
Scan type : Progressive
Compression mode : Lossy
Bits/(Pixel*Frame) : 0.115
Stream size : 256 MiB (77%)
Writing library : Lavc57.64.101
Default : Yes
Forced : Yes
Audio #1
ID : 2
Format : AAC
Format/Info : Advanced Audio Codec
Format profile : LC
Codec ID : A_AAC
Duration : 24 min 56 s
Bit rate : 256 kb/s
Channel(s) : 2 channels
Channel positions : Front: L R
Sampling rate : 48.0 kHz
Frame rate : 46.875 FPS (1024 spf)
Compression mode : Lossy
Delay relative to video : 9 ms
Stream size : 45.7 MiB (14%)
Language : Russian
Default : Yes
Forced : Yes
Audio #2
ID : 3
Format : AAC
Format/Info : Advanced Audio Codec
Format profile : LC
Codec ID : A_AAC
Duration : 24 min 56 s
Bit rate : 160 kb/s
Channel(s) : 2 channels
Channel positions : Front: L R
Sampling rate : 44.1 kHz
Frame rate : 43.066 FPS (1024 spf)
Compression mode : Lossy
Delay relative to video : 10 ms
Stream size : 28.5 MiB (9%)
Language : English
Default : No
Forced : No
Text #1
ID : 4
Format : ASS
Codec ID : S_TEXT/ASS
Codec ID/Info : Advanced Sub Station Alpha
Duration : 24 min 31 s
Bit rate : 241 b/s
Count of elements : 431
Compression mode : Lossless
Stream size : 43.3 KiB (0%)
Language : Russian
Default : Yes
Forced : No
Text #2
ID : 5
Format : ASS
Codec ID : S_TEXT/ASS
Codec ID/Info : Advanced Sub Station Alpha
Duration : 24 min 29 s
Bit rate : 170 b/s
Count of elements : 453
Compression mode : Lossless
Stream size : 30.6 KiB (0%)
Language : English
Default : No
Forced : No

Скриншоты

[cybertorrent.ru].t4501.torrent 
Торрент: Зарегистрирован [ 2018-02-17 04:38 ] · 86DD288D347BDD11616A17F32BEE385CF1AF2676

Скачать .torrent

Скачать

13 KB

Статус: проверено
Скачан: 0 раз
Размер: 331 MB
terms.php
Профиль [ЛС]
Показать сообщения:    

Текущее время: 20-Фев 05:52

Часовой пояс: UTC ± 0



Вы не можете начинать темы
Вы не можете отвечать на сообщения
Вы не можете редактировать свои сообщения
Вы не можете удалять свои сообщения
Вы не можете голосовать в опросах
Вы не можете прикреплять файлы к сообщениям
Вы можете скачивать файлы