Статистика раздачи
Размер:  1,46 GB   |    Зарегистрирован:  3 месяца 5 дней   |    Скачан:  0 раз

Полного источника не было: Никогда

 
   
 
 

lopster ®

Пол:
Не указан
Стаж:
3 месяца 5 дней
Сообщений:
612

Ёлки 1914- Год выпуска: 2014
Страна: Россия
Студия: Bazelevs
Жанр: семейный, комедия, драма-Продолжительность: 01:47:37-Режиссёры: Ольга Харина, Тимур Бекмамбетов, Дмитрий Киселёв, Александр Котт, Юрий Быков, Александр Карпиловский, Екатерина Телегина, Андрей Кавун, Заур Засеев
В ролях: Константин Хабенский, Иван Ургант, Сергей Светлаков, Евгения Брик, Нина Дворжецкая, Ирина Архипова, Альберт Филозов, Елена Плаксина, Антон Богданов, Ян Цапник, Виктор Вержбицкий, Александр Паль, Вера Панфилова, Дато Бахтадзе, Евгений Пронин, Александр Половцев, Артур Смольянинов, Катерина Шпица, Владимир Гостюхин и др.-Описание: 100 лет назад, Российская империя… Канун Рождества. Декабрьские пробки, праздничные гулянья, роскошные балы и скромные праздники, титулованные дворяне и обычные крестьяне, царская семья и солдаты первой мировой войны, прогрессивные поэты и первые фигуристы — все было по-другому, за исключением … праздника. Люди готовились, жили, верили, мечтали и ждали настоящего чуда — Рождества!-КиноПоиск | IMDb | Sample-Качество: BDRip-AVC (Источник: Elki.2014.O.BDRemux.1080p)
Формат: MKV
Видео: x264, 1132x474 (2.40:1), 24.000 fps, ~1559 kbps avg, 0.121 bit/pixel
Аудио: Русский 48.0 KHz, AC3, 3/2 (L,C,R,l,r) + LFE ch, ~384.00 kbps avg
Субтитры: русские-

Релиз


Рип - whip93.

Сравнение скриншотов

Source vs. Encode

MediaInfo | x264 log

x264 log

---[Information] [29.12.2017 16:20:08] raw [info]: 1132x474p 1:1 @ 24/1 fps (cfr)
---[Information] [29.12.2017 16:20:08] x264 [info]: using SAR=1/1
---[Information] [29.12.2017 16:20:08] x264 [info]: using cpu capabilities: MMX2 SSE2Fast SSSE3 SSE4.2 AVX
---[Information] [29.12.2017 16:20:08] x264 [info]: profile High, level 4.1
---[Information] [29.12.2017 20:51:01] x264 [info]: frame I:1278 Avg QP:16.94 size: 58124
---[Information] [29.12.2017 20:51:01] x264 [info]: frame P:40454 Avg QP:20.78 size: 15630
---[Information] [29.12.2017 20:51:01] x264 [info]: frame B:113247 Avg QP:23.52 size: 4863
---[Information] [29.12.2017 20:51:01] x264 [info]: consecutive B-frames: 3.7% 6.0% 13.8% 29.2% 17.1% 26.5% 2.5% 0.4% 0.3% 0.1% 0.1% 0.1% 0.1% 0.1% 0.1%
---[Information] [29.12.2017 20:51:01] x264 [info]: mb I I16..4: 9.8% 67.9% 22.3%
---[Information] [29.12.2017 20:51:01] x264 [info]: mb P I16..4: 2.6% 13.5% 1.9% P16..4: 42.9% 19.9% 5.5% 1.6% 0.2% skip:11.9%
---[Information] [29.12.2017 20:51:01] x264 [info]: mb B I16..4: 0.4% 1.7% 0.2% B16..8: 33.6% 11.8% 1.7% direct: 3.1% skip:47.4% L0:41.4% L1:46.6% BI:12.0%
---[Information] [29.12.2017 20:51:01] x264 [info]: 8x8 transform intra:74.1% inter:68.5%
---[Information] [29.12.2017 20:51:01] x264 [info]: coded y,uvDC,uvAC intra: 63.8% 60.9% 27.1% inter: 13.3% 11.3% 1.1%
---[Information] [29.12.2017 20:51:01] x264 [info]: i16 v,h,dc,p: 22% 15% 4% 59%
---[Information] [29.12.2017 20:51:01] x264 [info]: i8 v,h,dc,ddl,ddr,vr,hd,vl,hu: 12% 8% 11% 8% 11% 13% 12% 12% 14%
---[Information] [29.12.2017 20:51:01] x264 [info]: i4 v,h,dc,ddl,ddr,vr,hd,vl,hu: 16% 8% 9% 8% 13% 13% 12% 10% 12%
---[Information] [29.12.2017 20:51:01] x264 [info]: i8c dc,h,v,p: 29% 30% 22% 18%
---[Information] [29.12.2017 20:51:01] x264 [info]: Weighted P-Frames: Y:3.6% UV:1.4%
---[Information] [29.12.2017 20:51:01] x264 [info]: ref P L0: 54.3% 7.5% 14.7% 5.8% 4.2% 3.4% 2.8% 1.9% 1.5% 1.4% 1.2% 1.3% 0.1% 0.0%
---[Information] [29.12.2017 20:51:01] x264 [info]: ref B L0: 80.9% 8.4% 4.1% 1.8% 1.3% 1.0% 0.9% 0.5% 0.5% 0.5% 0.2%
---[Information] [29.12.2017 20:51:01] x264 [info]: ref B L1: 96.0% 4.0%
---[Information] [29.12.2017 20:51:01] x264 [info]: kb/s:1557.58
---[Information] [29.12.2017 20:51:01] encoded 154979 frames, 9.54 fps, 1557.58 kb/s
General
Unique ID : 255243394923725719007594693275614224658 (0xC00616F923B1CB775810928DE768A112)
Complete name : F:\Ёлки.1914.2014.BDRip.DD5.1.x264.-whip93.mkv
Format : Matroska
Format version : Version 4 / Version 2
File size : 1.46 GiB
Duration : 1h 47mn
Overall bit rate : 1 943 Kbps
Movie name : Ёлки 1914 (2014) - Release by whip93
Encoded date : UTC 2017-12-29 17:13:00
Writing application : mkvmerge v19.0.0 ('Brave Captain') 64-bit
Writing library : libebml v1.3.5 + libmatroska v1.4.8
DURATION : 01:41:24.177000000
NUMBER_OF_FRAMES : 1513
NUMBER_OF_BYTES : 86142
_STATISTICS_WRITING_APP : mkvmerge v19.0.0 ('Brave Captain') 64-bit
_STATISTICS_WRITING_DATE_UT : 2017-12-29 17:13:00
_STATISTICS_TAGS : BPS DURATION NUMBER_OF_FRAMES NUMBER_OF_BYTES
Video
ID : 1
Format : AVC
Format/Info : Advanced Video Codec
Format profile : High@L4.1
Format settings, CABAC : Yes
Format settings, ReFrames : 12 frames
Codec ID : V_MPEG4/ISO/AVC
Duration : 1h 47mn
Bit rate : 1 559 Kbps
Width : 1 132 pixels
Height : 474 pixels
Display aspect ratio : 2.40:1
Frame rate mode : Constant
Frame rate : 24.000 fps
Color space : YUV
Chroma subsampling : 4:2:0
Bit depth : 8 bits
Scan type : Progressive
Bits/(Pixel*Frame) : 0.121
Stream size : 1.14 GiB (78%)
Title : Encoded by whip93
Writing library : x264 core 152 r2851 ba24899
Encoding settings : cabac=1 / ref=12 / deblock=1:-3:-3 / analyse=0x3:0x133 / me=umh / subme=11 / psy=1 / psy_rd=1.00:0.08 / mixed_ref=0 / me_range=64 / chroma_me=1 / trellis=2 / 8x8dct=1 / cqm=0 / deadzone=21,11 / fast_pskip=0 / chroma_qp_offset=-1 / threads=12 / lookahead_threads=3 / sliced_threads=0 / nr=0 / decimate=1 / interlaced=0 / bluray_compat=0 / constrained_intra=0 / bframes=14 / b_pyramid=2 / b_adapt=2 / b_bias=0 / direct=1 / weightb=1 / open_gop=0 / weightp=2 / keyint=240 / keyint_min=24 / scenecut=40 / intra_refresh=0 / rc_lookahead=90 / rc=2pass / mbtree=1 / bitrate=1559 / ratetol=1.0 / qcomp=0.72 / qpmin=0 / qpmax=69 / qpstep=4 / cplxblur=20.0 / qblur=0.5 / vbv_maxrate=50000 / vbv_bufsize=62500 / nal_hrd=none / filler=0 / ip_ratio=1.40 / aq=1:0.80
Language : Russian
Default : Yes
Forced : No
Color range : Limited
Color primaries : BT.709
Transfer characteristics : BT.709
Matrix coefficients : BT.709
Audio
ID : 2
Format : AC-3
Format/Info : Audio Coding 3
Mode extension : CM (complete main)
Format settings, Endianness : Big
Codec ID : A_AC3
Duration : 1h 47mn
Bit rate mode : Constant
Bit rate : 384 Kbps
Channel(s) : 6 channels
Channel positions : Front: L C R, Side: L R, LFE
Sampling rate : 48.0 KHz
Compression mode : Lossy
Stream size : 296 MiB (20%)
Language : Russian
Default : Yes
Forced : No
Text
ID : 3
Format : UTF-8
Codec ID : S_TEXT/UTF8
Codec ID/Info : UTF-8 Plain Text
Language : Russian
Default : No
Forced : No
Menu
00:00:00.000 : ru:Глава 1
00:07:19.250 : ru:Глава 2
00:15:27.458 : ru:Глава 3
00:21:50.333 : ru:Глава 4
00:28:18.458 : ru:Глава 5
00:36:02.041 : ru:Глава 6
00:42:31.041 : ru:Глава 7
00:50:14.833 : ru:Глава 8
00:58:53.583 : ru:Глава 9
01:08:15.958 : ru:Глава 10
01:17:28.666 : ru:Глава 11
01:24:48.625 : ru:Глава 12
01:31:05.208 : ru:Глава 13
01:37:07.916 : ru:Глава 14
01:41:24.916 : ru:Глава 15

Скриншоты

-
[cybertorrent.ru].t477.torrent 
Торрент: Зарегистрирован [ 2018-02-15 15:48 ] · 83A6A7C1D85663020EB6A0C2EFE645E503DD46F4

Скачать .torrent

Скачать

59 KB

Статус: проверено
Скачан: 0 раз
Размер: 1,46 GB
Профиль [ЛС]
Показать сообщения:    

Текущее время: 20-Май 23:13

Часовой пояс: UTC ± 0



Вы не можете начинать темы
Вы не можете отвечать на сообщения
Вы не можете редактировать свои сообщения
Вы не можете удалять свои сообщения
Вы не можете голосовать в опросах
Вы не можете прикреплять файлы к сообщениям
Вы можете скачивать файлы