Статистика раздачи
Размер:  30,01 GB   |    Зарегистрирован:  3 месяца 6 дней   |    Скачан:  0 раз

Полного источника не было: Никогда

 
   
 
 

kex9s ®

Пол:
Не указан
Стаж:
3 месяца 9 дней
Сообщений:
332

Сверхъестественное
Supernatural
- Год выпуска: 2011
Страна: США
Жанр: мистика, ужасы, фэнтези, драма
Продолжительность: 42 м.
Перевод: отсутствует
Русские субтитры: есть
Режиссёр: Роберт Сингер
В ролях: Джаред Падалеки, Дженсен Эклс, Джим Бивер, Миша Коллинз, Джеффри Дин Морган, Женевьев Падалеки, Саманта Феррис, Курт Фуллер, Кэти Кэссиди, Лорен Коэн
Описание: Сериал рассказывает о приключениях братьев Сэма и Дина Винчестеров, которые путешествуют по Соединённым Штатам на чёрном автомобиле Chevrolet Impala 1967 года, расследуют паранормальные явления, многие из которых основаны на американских городских легендах и фольклоре, и сражаются с порождениями зла, такими как демоны и призраки.
-
Качество: WEB-DL
Формат: MKV
Видео кодек: H.264
Аудио кодек: AC3
Видео: 1280x720; 23,976 fps; 4 000 kbps; 0.182 bit/pixel
Аудио: 48.0 KHz, 6 channels, 384 Kbps

Список серий


01 Meet the New Boss (Встречайте нового босса)
02 Hello Cruel World (Привет, жестокий мир)
03 The Girl Next Door (Простая девчонка)
04 Defending Your Life (Защищая свою жизнь)
05 Shut Up, Dr. Phil (Милые бранятся - только тешатся)
06 Slash Fiction (Убойное чтиво)
07 The Mentalists (Менталисты)
08 Season Seven, Time for a Wedding! (Седьмой сезон - пора жениться!)
09 How To Win Friends And Influence Monsters (Как завоевывать друзей и оказывать влияние на монстров)
10 Death’s Door (На пороге смерти)
11 Adventures in Babysitting (Ох, уж эти детки!)
12 Time After Time After Time (Путешествие во времени)
13 The Slice Girls (Части тела)
14 Plucky Pennywhistle`s Magic Menagerie (Волшебный зверинец Плаки Пеннивистля)
15 Repo Man (Потрошитель)
16 Out With The Old (Расстаться с прошлым)
17 The Born-Again Identity (Идентификация Борна. Дубль два)
18 Party On, Garth (Вздрогнем, Гарт!)
19 Of Grave Importance (Жизненно важно)
20 The Girl with the Dungeons and Dragons Tattoo (Девушка с татуировкой «Подземелья и драконы»)
21 Reading is Fundamental (Грамота - основа знаний)
22 There Will Be Blood (Да будет кровь)
23 Survival of the Fittest (Выживают сильнейшие)

MI

General
Unique ID : 210151662658646078174970004396013520097 (0x9E19BCED6AE8186C91DC6C398FAC04E1)
Complete name : G:\Supernatural S07 720p WEB-DL\Supernatural S07E01 720p WEB-DL DD5.1 H.264-GFY.mkv
Format : Matroska
File size : 1.33 GiB
Duration : 42mn 28s
Overall bit rate : 4 495 Kbps
Encoded date : UTC 2011-09-24 07:40:18
Writing application : mkvmerge v4.9.1 ('Ich will') built on Jul 11 2011 23:53:15
Writing library : libebml v1.2.1 + libmatroska v1.1.1
Video
ID : 1
Format : AVC
Format/Info : Advanced Video Codec
Format profile : High@L3.1
Format settings, CABAC : No
Format settings, ReFrames : 2 frames
Format settings, GOP : M=2, N=26
Codec ID : V_MPEG4/ISO/AVC
Duration : 42mn 28s
Bit rate : 4 021 Kbps
Width : 1 280 pixels
Height : 720 pixels
Display aspect ratio : 16:9
Frame rate : 23.976 fps
Color space : YUV
Chroma subsampling : 4:2:0
Bit depth : 8 bits
Scan type : Progressive
Bits/(Pixel*Frame) : 0.182
Stream size : 1.19 GiB (89%)
Language : English
Color primaries : BT.709-5, BT.1361, IEC 61966-2-4, SMPTE RP177
Transfer characteristics : BT.709-5, BT.1361
Matrix coefficients : BT.709-5, BT.1361, IEC 61966-2-4 709, SMPTE RP177
Audio
ID : 2
Format : AC-3
Format/Info : Audio Coding 3
Mode extension : CM (complete main)
Codec ID : A_AC3
Duration : 42mn 28s
Bit rate mode : Constant
Bit rate : 384 Kbps
Channel(s) : 6 channels
Channel positions : Front: L C R, Side: L R, LFE
Sampling rate : 48.0 KHz
Bit depth : 16 bits
Compression mode : Lossy
Stream size : 117 MiB (9%)
Language : English

Скриншоты

-Ссылка на предыдущие и альтернативные раздачи

Внимание! Раздача ведётся путём добавления новых серий

Внимание! Раздача ведётся путём добавления новых серий; при каждом добавлении создаётся новый торрент. Чтобы начать докачку новой серии, пользователям необходимо сделать следующее:
(1) остановить скачивание,
(2) удалить старый торрент у себя из клиента (старые серии удалять не надо),
(3) скачать новый торрент и запустить его у себя в клиенте вместо старого, при этом указать клиенту путь в старую папку куда и должно происходить скачивание новых серий.
Ваш клиент при этом должен произвести хеширование (проверку) старой папки (если не производит сам - помогите ему сделать это), и будет докачивать только те серии которых у вас ещё нет. Старые серии при этом не удаляются, а продолжают раздаваться!
Eсли вы уже удалили старые серии, то предотвратить повторную закачку старых серий можно, отжав галочку в соответствующих местах при запуске нового торрента. По возможности, желательно не удалять старые серии как можно дольше чтобы релизёр не столько продолжал раздавать старые серии, а смог сконцентрироваться на новых.
[cybertorrent.ru].t7780.torrent 
Торрент: Зарегистрирован [ 2018-02-18 23:20 ] · 0DBDDC7ABC39759EE545F714EC45A0DAAEE94502

Скачать .torrent

Скачать

80 KB

Статус: проверено
Скачан: 0 раз
Размер: 30,01 GB
Профиль [ЛС]
Показать сообщения:    

Текущее время: 25-Май 20:30

Часовой пояс: UTC ± 0



Вы не можете начинать темы
Вы не можете отвечать на сообщения
Вы не можете редактировать свои сообщения
Вы не можете удалять свои сообщения
Вы не можете голосовать в опросах
Вы не можете прикреплять файлы к сообщениям
Вы можете скачивать файлы