Статистика раздачи
Размер:  4,61 GB   |    Зарегистрирован:  3 месяца 1 день   |    Скачан:  0 раз

Полного источника не было: Никогда

Личеров:  1  [  0 KB/s  ]  
 
   
 
 

Anatoli ®

Пол:
Не указан
Стаж:
3 месяца 4 дня
Сообщений:
316

Звёздный крейсер Галактика: Кровь и Хром / Battlestar Galactica: Blood and Chrome Год выпуска: 2012
Страна: США
Жанр: фантастика, боевик, драма
Продолжительность: 01:33:32
Перевод: Любительский многоголосый закадровый (Baibako)
Оригинальная дорожка: английская
Русские субтитры: нет
Субтитры: нет
Режиссёр: Джонас Пейт
В ролях: Люк Паскуалино, Бен Коттон, Джилл Тид, Лили Бордан, Майк Допуд, Джозеф Фалсетти, Эдриан Холмс, Карен ЛеБлан, Тоби Левинс, Брайан Маркинсон
Описание: События происходят на 10-м году первой войны с сайлонами в Двенадцати колониях Кобола. Энсин (мичман) Уильям Адама, недавний выпускник Летной академии, получает назначение на один из самых мощных кораблей в Колониальном флоте… звездный крейсер "Галактика". Талантливый молодой пилот волей случая участвует в опасном секретном задании на Ледяной планете, исход которого может изменить весь ход кровопролитной многолетней войны.
Изначально канал SyFy заказал съемки онлайн-сериала "Звездный Крейсер Галактика: Кровь и Хром" (BattleStar Galactica: Blood & Chrome). Однако потом заявил, что проект выйдет как полуторачасовой фильм с возможным продолжением в виде веб-эпизодов. В итоге показ полнометражного пилота назначили на февраль 2013г. А показ веб-версии начался с 9 ноября на онлайн-канале Machinima. Двухчасовой пилот разбит на 10 серий по 7-12 минут каждая. И все серии будут показаны в течение четырех недель.
Здесь же - полная версия с дополнительными 3-мя доозвученными минутами.
Вот тайминг добавленных (доозвученных) сцен:
31:02 - 32:08
42:17 - 42:25
1:01:03 - 1:03:29

Дополнительная информация:
Перевод: Татьяна Saavick
Озвучка: Алексей Кузнецов, Руслан Иванов, Елена Григорьева и Татьяна Оболевич
Обложка: tvblog
Особая благодарность pazl01 за помощь в подготовке релиза!


Ссылка на предыдущие и альтернативные раздачи: http://cybertorrent.ru/tracker.php?nm=Battle...Blood+and+Chrome
Сэмпл
Качество: BDRip 720p
Формат: MKV
Видео кодек: H.264
Аудио кодек: AAC
Видео:AVC High@L4.1 5169 Кбит/сек 1280x720 23,976 кадра/сек 0.122 Bits/Pixel
Аудио: rus: AC-3 6 каналов, 48,0 КГц 384 Кбит/сек
Аудио 2: eng: DTS 6 каналов, 48,0 КГц 1509 Кбит/сек-Релиз: -

MI

General
Unique ID : 228406332867662185062820787937072612886 (0xABD575A8112F8B60801BAE732AFB8616)
Complete name : Battlestar.Galactica.Blood.and.Chrome.HD720p.BluRay.Rus.Eng.BaibaKo.tv.mkv
Format : Matroska
Format version : Version 4 / Version 2
File size : 4.61 GiB
Duration : 1h 33mn
Overall bit rate : 7 063 Kbps
Encoded date : UTC 2010-02-22 21:41:31
Writing application : mkvmerge v5.9.0 ('On The Loose') built on Dec 9 2012 15:37:01
Writing library : libebml v1.3.0 + libmatroska v1.4.0
Video
ID : 1
Format : AVC
Format/Info : Advanced Video Codec
Format profile : High@L4.1
Format settings, CABAC : Yes
Format settings, ReFrames : 5 frames
Codec ID : V_MPEG4/ISO/AVC
Duration : 1h 33mn
Bit rate : 5 169 Kbps
Width : 1 280 pixels
Height : 720 pixels
Display aspect ratio : 16:9
Frame rate mode : Constant
Frame rate : 23.976 fps
Color space : YUV
Chroma subsampling : 4:2:0
Bit depth : 8 bits
Scan type : Progressive
Bits/(Pixel*Frame) : 0.234
Stream size : 3.29 GiB (71%)
Writing library : x264 core 129 r2245 bc13772
Encoding settings : cabac=1 / ref=5 / deblock=1:0:0 / analyse=0x3:0x133 / me=umh / subme=7 / psy=1 / psy_rd=1.00:0.00 / mixed_ref=1 / me_range=16 / chroma_me=1 / trellis=1 / 8x8dct=1 / cqm=0 / deadzone=21,11 / fast_pskip=0 / chroma_qp_offset=-2 / threads=12 / lookahead_threads=2 / sliced_threads=0 / nr=0 / decimate=1 / interlaced=0 / bluray_compat=0 / constrained_intra=0 / bframes=3 / b_pyramid=2 / b_adapt=1 / b_bias=0 / direct=1 / weightb=1 / open_gop=0 / weightp=2 / keyint=250 / keyint_min=23 / scenecut=40 / intra_refresh=0 / rc_lookahead=40 / rc=2pass / mbtree=1 / bitrate=5169 / ratetol=1.0 / qcomp=0.60 / qpmin=0 / qpmax=69 / qpstep=4 / cplxblur=20.0 / qblur=0.5 / ip_ratio=1.40 / aq=1:1.00
Language : English
Default : Yes
Forced : No
Audio #1
ID : 2
Format : AC-3
Format/Info : Audio Coding 3
Mode extension : CM (complete main)
Format settings, Endianness : Big
Codec ID : A_AC3
Duration : 1h 33mn
Bit rate mode : Constant
Bit rate : 384 Kbps
Channel(s) : 6 channels
Channel positions : Front: L C R, Side: L R, LFE
Sampling rate : 48.0 KHz
Bit depth : 16 bits
Compression mode : Lossy
Stream size : 257 MiB (5%)
Title : Rus BaibaKo.tv DD5.1
Language : Russian
Default : Yes
Forced : No
Audio #2
ID : 3
Format : DTS
Format/Info : Digital Theater Systems
Mode : 16
Format settings, Endianness : Big
Codec ID : A_DTS
Duration : 1h 33mn
Bit rate mode : Constant
Bit rate : 1 509 Kbps
Channel(s) : 6 channels
Channel positions : Front: L C R, Side: L R, LFE
Sampling rate : 48.0 KHz
Bit depth : 24 bits
Compression mode : Lossy
Stream size : 1 010 MiB (21%)
Title : Eng DTS 5.1
Language : English
Default : No
Forced : No
Menu
00:00:00.000 : en:00:00:00.000
00:05:24.199 : en:00:05:24.199
00:11:34.360 : en:00:11:34.360
00:15:28.928 : en:00:15:28.928
00:21:51.602 : en:00:21:51.602
00:26:45.604 : en:00:26:45.604
00:33:51.613 : en:00:33:51.613
00:36:51.334 : en:00:36:51.334
00:41:12.762 : en:00:41:12.762
00:46:37.753 : en:00:46:37.753
00:49:48.277 : en:00:49:48.277
00:53:15.192 : en:00:53:15.192
00:58:18.453 : en:00:58:18.453
01:05:44.899 : en:01:05:44.899
01:09:13.733 : en:01:09:13.733
01:13:07.008 : en:01:13:07.008
01:15:40.995 : en:01:15:40.995
01:20:14.727 : en:01:20:14.727
01:24:26.979 : en:01:24:26.979
01:29:41.251 : en:01:29:41.251

Скриншоты


-- Как закачать отдельный файл из торрента или докачать ранее пропущенные файлы торрента! -

Внимание! Раздача ведётся путём добавления новых серий!

Внимание! Раздача ведётся путём добавления новых серий; при каждом добавлении создётся новый торрент. Чтобы начать докачку новой серии, пользователям необходимо сделать следующее:
(1) остановить скачивание,
(2) удалить старый торрент у себя из клиента (старые серии удалять не надо),
(3) скачать новый торрент и запустить его у себя в клиенте вместо старого, при этом указать клиенту путь в старую папку куда и должно происходить скачивание новых серий.
Ваш клиент при этом должен произвести хеширование (проверку) старой папки (если не производит сам - помогите ему сделать это), и будет докачивать только те серии которых у вас ещё нет. Старые серии при этом не удаляются, а продолжают раздаваться!
Eсли вы уже удалили старые серии, то предотвратить повторную закачку старых серий можно, отжав галочку в соответсвующих местах при запуске нового торрента.
-

График обновления раздачи


Добавлена 1 серия. 11.11.2012 года
Добавлена 2 серия. 11.11.2012 года
Добавлены 3-4 серии. 18.11.2012 года
Добавлены 5-6 серии. 25.11.2012 года
Добавлены 7-8 серии. 03.12.2012 года
Добавлены 9-10 серии (ПОЛНЫЙ СЕЗОН). 10.12.2012 года
Выложена полная версия с доозвученными сценами. 14.02.2013 года
--
[cybertorrent.ru].t8193.torrent 
Торрент: Зарегистрирован [ 2018-02-19 02:20 ] · 7F1571896A9E55B5B5590AC7AA25CC7AC46F7619

Скачать .torrent

Скачать

24 KB

Статус: проверено
Скачан: 0 раз
Размер: 4,61 GB
Профиль [ЛС]
Показать сообщения:    

Текущее время: 20-Май 19:53

Часовой пояс: UTC ± 0



Вы не можете начинать темы
Вы не можете отвечать на сообщения
Вы не можете редактировать свои сообщения
Вы не можете удалять свои сообщения
Вы не можете голосовать в опросах
Вы не можете прикреплять файлы к сообщениям
Вы можете скачивать файлы