Статистика раздачи
Размер:  2,87 GB   |    Зарегистрирован:  2 часа 29 минут   |    Скачан:  0 раз

Полного источника не было: Никогда

 
   
 
 

Slivka ®

Пол:
Не указан
Стаж:
3 дня
Сообщений:
39

Место преступления: Лас-Вегас / CSI: Crime Scene Investigation
Бессмертие / Immortality (Финал сериала)
- Год выпуска: 2015
Страна: США
Жанр: Детектив, драма, криминал
Продолжительность: ~00:43:00 x 2
Перевод: Любительский (двухголосый закадровый) (DreamRecords)
Режиссёр: Луис Милито / Louis Milito
В ролях: Вильям Петерсен, Тед Дэнсон, Джорджа Фокс, Эрик Шманда, Роберт Дэвид Холл, Уоллес Лэнгэм, Дэвид Берман, Элизабет Харнуа, Пол Гилфойл и др.
Описание: Лас-Вегас... В казино прозвучал взрыв и команда криминалистов под руководством ДиБи Рассела снова взялась за дело. Улики их приведут к человеку, с которым они неоднократно пересекались.-Доп. информация:Озвучка: DreamRecords
Автор перевода: Ольга Гатилина
Монтаж и сведение звука: Алексей Фокин
Текст читали:
  • Анастасия Флигина
  • Владимир Курдов-Все раздачи сериала
    Сэмпл-Качество: WEB-DL 720p
    Формат: MKV
    Видео: H.264, 1280x720 (16:9), 23.976 fps, 3941 kbps, 0.178 bit/pixel
    Аудио 1: AC3, 48 KHz, 6 ch, 384 kbps - Rus (DreamRecords)
    Аудио 2: AC3, 48 KHz, 6 ch, 384 kbps - Eng (Original)
    Субтитры: отсутствуют-

    MediaInfo

    Код:Общее
    Формат : Matroska
    Версия формата : Version 2
    Размер файла : 1,45 Гбайт
    Продолжительность : 43 м.
    Общий поток : 4804 Кбит/сек
    Дата кодирования : UTC 2016-02-02 17:47:06
    Программа кодирования : mkvmerge v5.8.0 ('No Sleep / Pillow') built on Sep 2 2012 15:37:04
    Библиотека кодирования : libebml v1.2.3 + libmatroska v1.3.0
    Видео
    Идентификатор : 1
    Формат : AVC
    Формат/Информация : Advanced Video Codec
    Профиль формата : High@L3.1
    Параметр CABAC формата : Нет
    Параметр ReFrames формата : 2 кадра
    Идентификатор кодека : V_MPEG4/ISO/AVC
    Продолжительность : 43 м.
    Битрейт : 3941 Кбит/сек
    Ширина : 1280 пикселей
    Высота : 720 пикселей
    Соотношение сторон : 16:9
    Режим частоты кадров : Постоянный
    Частота кадров : 23,976 (24000/1001) кадра/сек
    Цветовое пространство : YUV
    Субдискретизация насыщенности : 4:2:0
    Битовая глубина : 8 бит
    Тип развёртки : Прогрессивная
    Бит/(Пиксели*Кадры) : 0.178
    Размер потока : 1,19 Гбайт (82%)
    Язык : English
    Default : Да
    Forced : Нет
    Цветовой диапазон : Limited
    Основные цвета : BT.709
    Характеристики трансфера : BT.709
    Коэффициенты матрицы : BT.709
    Аудио #1
    Идентификатор : 2
    Формат : AC-3
    Формат/Информация : Audio Coding 3
    Расширение режима : CM (complete main)
    Параметр Endianness формата : Big
    Идентификатор кодека : A_AC3
    Продолжительность : 43 м.
    Вид битрейта : Постоянный
    Битрейт : 384 Кбит/сек
    Каналы : 6 каналов
    Расположение каналов : Front: L C R, Side: L R, LFE
    Частота : 48,0 КГц
    Частота кадров : 31,250 кадров/сек (1536 spf)
    Метод сжатия : С потерями
    Размер потока : 119 Мбайт (8%)
    Заголовок : DreamRecords
    Язык : Russian
    Default : Да
    Forced : Нет
    Аудио #2
    Идентификатор : 3
    Формат : AC-3
    Формат/Информация : Audio Coding 3
    Расширение режима : CM (complete main)
    Параметр Endianness формата : Big
    Идентификатор кодека : A_AC3
    Продолжительность : 43 м.
    Вид битрейта : Постоянный
    Битрейт : 384 Кбит/сек
    Каналы : 6 каналов
    Расположение каналов : Front: L C R, Side: L R, LFE
    Частота : 48,0 КГц
    Частота кадров : 31,250 кадров/сек (1536 spf)
    Метод сжатия : С потерями
    Размер потока : 119 Мбайт (8%)
    Заголовок : Original
    Язык : English
    Default : Нет
    Forced : Нет

    Скриншоты

    [cybertorrent.ru].t9064.torrent 
    Торрент: Зарегистрирован [ Сегодня, в 10:55 ] · B901AE577DC68D3DBF7F41903FB216FBF8F1FF3A

    Скачать .torrent

    Скачать

    15 KB

    Статус: проверено
    Скачан: 0 раз
    Размер: 2,87 GB
    terms.php
  • Профиль [ЛС]
    Показать сообщения:    

    Текущее время: 19-Фев 13:24

    Часовой пояс: UTC ± 0



    Вы не можете начинать темы
    Вы не можете отвечать на сообщения
    Вы не можете редактировать свои сообщения
    Вы не можете удалять свои сообщения
    Вы не можете голосовать в опросах
    Вы не можете прикреплять файлы к сообщениям
    Вы можете скачивать файлы