Статистика раздачи
Размер:  9,51 GB   |    Зарегистрирован:  5 дней   |    Скачан:  0 раз

Полного источника не было: Никогда

 
   
 
 

deltacatsplus ®

Пол:
Не указан
Стаж:
6 дней
Сообщений:
211

Ангар-1: Папки НЛО / Hangar 1: The UFO Files
Год выпуска: 2014-2015
Страна: CША
Жанр: Документальный ТВ-сериал
Продолжительность: ~00:41:00 (серия)
Перевод: Субтитры
Русские субтитры: есть
Формат субтитров: hardsub (неотключаемые)
Оригинальная аудиодорожка: английский
Продюсеры: Джули Ауэрбах /Julie Auerbach, Генри Капанна / Henry Capanna
Телеканал: История /History
Описание: События, о которых рассказывается в сериале, базируются на реальных расследованиях случаев появления НЛО. Совместная сеть НЛО или МУФОН - независимая организация, не связанная ни с каким правительством. Она исследует свидетельства очевидцев НЛО по всему миру. За последние 50 лет они собрали более 70 тысяч папок исследований, которые хранятся в закрытом месте, известном как Ангар-1. И сейчас впервые МУФОН открывает доступ к огромному архиву.
Релиз группы:
Доп. информация: Запись с канала "History". Субтитры: Транс Тайтлс ЛТД. Благодарю CmapbluDpyr за постер и описание серий.
Сэмпл: https://yadi.sk/i/ZBQmn5-mZmynM
качество: TVRip
формат: AVI
Видео: 1-й сезон 1495 Кbps, 704х528 (4:3), 25.000 fps, MPEG-4 Visual (XviD)(Advanced Simple@L5)(BVOP2)
Видео: 2-й сезон 1795 Кbps, 704х432 (1:630), 25.000 fps, MPEG-4 Visual (XviD)(Advanced Simple@L5)(BVOP)
Аудио: 128 Kbps,48.0 KHz, 2 сhannels, MPEG Audio (MP3) (Version 1)(Layer 3)(Joint stereo)

Список серий

Сезон 1
Серия 1. Presidential Encounters / Президентские встречи - Один из самых противоречивых материалов "Ангара № 1" являет нам возможность встречи Эйзенхауэра с инопланетной расой в 1954 году, в целях заключения соглашения с ней. При этом если верить "МУФОНу", Эйзенхауэр - не первый президент, столкнувшийся с внеземными цивилизациями. Первенство принадлежит президенту Трумэну.
Серия 2. Underground Bases / Подземные базы - Архив "Муфон" позволяет предположить шокирующую возможность, тогда как мы в поисках свидетельств существования НЛО и пришельцев поднимаем глаза к небу, не исключено, что нам стоит опустить их книзу. В "Ангаре 1" есть материалы о тайных подземных базах.
Серия 3. Alien Technology / Внеземные технологии - За последние 70 лет технический прогресс набрал невиданный темп. Он даровал человечеству возможности, немыслимые ранее достижениями, совершившими революцию в связи, в медицине, транспорте и в военном деле.Но что спровоцировало этот технологический скачок?
Серия 4. Crashes and Cover Ups / Крушения и замалчивания - Происшествие в Барстоу - это всего один случай из многих. Этот севший НЛО был оцеплен и вывезен военными без объяснений. Очень немногие из этих случаев становятся достоянием гласности. Но так было не всегда.
Серия 5. Горячие точки Америки / American Hotspots - Многие из штатов Америки отличаются большим числом визитов НЛО. Миссури, Нью-Йорк, Колорадо и Калифорния - лишь некоторые из них. Часто их характеризуют как мощные волны, и уфологи называют их налётами. Можно ли определить, почему одни районы привлекают НЛО больше других? Районы необычной активности НЛО называются горячими точками.
Серия 6. Space Weapons / Космическое оружие - В "Ангаре №1" исследователи МУФОНа ищут в своих папках указания на секретную программу космического вооружения США. Шотландец Гари Маккиннон, после взлома компьютеров правительства Америки, объявил, что нашёл доказательства того, что США прячет космический флот.
Серия 7. Unfriendly Skies / Враждебное небо - Пилоты проводят в воздухе сотни часов в год и они первыми сталкиваются с феноменом НЛО. Может ли быть, что они видят тарелки, но молчат о них ? Почему они не рассказывают об этом людям ? Анализ всех этих случаев наводит на мысль, что управление авиацией задались целью вести негласный закон молчания.
Серия 8. Shadow Government / Теневое правительство - Хранящиеся в "Ангаре №1" документы указывают на существование теневого правительства - скрытой группы чиновников, призванных контролировать хранение тайны визитов внеземных существ.
Сезон 2

Серия 1. НЛО на войне (UFOs at War)
Серия 2. Подводные НЛО (Underwater UFOs)
Серия 3. Люди в черном (Men in Black)
Серия 4. Темная сторона Луны (Far Side of the Moon)
Серия 5. Люди со звезд (Star People)
Серия 6. Преследуемый НЛО (Hunted by UFOs)
Серия 7. НЛО над Техасом (UFOs Over Texas)
Серия 8. Дымящийся пистолет (The Smoking Gun)
Серия 9. Полиция против НЛО (Cops vs. UFOs)
Серия 10. Плененные пришельцы (Captured Aliens)
Серия 11. Близкие контакты (Extreme Close Encounters)
Серия 12. Суперсилы НЛО (UFO Superpowers)

MediaInfo

General
Complete name : F:\Hangar-1\S1-E06-Space Weapons.avi
Format : AVI
Format/Info : Audio Video Interleave
File size : 477 MiB
Duration : 40mn 50s
Overall bit rate : 1 633 Kbps
Writing library : VirtualDub-MPEG2 build 24600/release
Video
ID : 0
Format : MPEG-4 Visual
Format profile : Advanced Simple@L5
Format settings, BVOP : Yes
Format settings, QPel : No
Format settings, GMC : No warppoints
Format settings, Matrix : Default (MPEG)
Codec ID : XVID
Codec ID/Hint : XviD
Duration : 40mn 50s
Bit rate : 1 495 Kbps
Width : 704 pixels
Height : 528 pixels
Display aspect ratio : 4:3
Frame rate : 25.000 fps
Color space : YUV
Chroma subsampling : 4:2:0
Bit depth : 8 bits
Scan type : Progressive
Bits/(Pixel*Frame) : 0.161
Stream size : 437 MiB (92%)
Writing library : XviD 58
Audio
ID : 1
Format : MPEG Audio
Format version : Version 1
Format profile : Layer 3
Mode : Joint stereo
Mode extension : MS Stereo
Codec ID : 55
Codec ID/Hint : MP3
Duration : 40mn 50s
Bit rate mode : Constant
Bit rate : 128 Kbps
Channel(s) : 2 channels
Sampling rate : 48.0 KHz
Stream size : 37.4 MiB (8%)
Alignment : Split accross interleaves
Interleave, duration : 40 ms (1.00 video frame)
Interleave, preload duration : 500 ms

Скриншоты

[cybertorrent.ru].t1956.torrent 
Торрент: Зарегистрирован [ 2018-02-16 08:44 ] · 98C423D39639ECCA791882B2CAE0C1834A18D809

Скачать .torrent

Скачать

14 KB

Статус: проверено
Скачан: 0 раз
Размер: 9,51 GB
terms.php
Профиль [ЛС]
Показать сообщения:    

Текущее время: 21-Фев 19:04

Часовой пояс: UTC ± 0



Вы не можете начинать темы
Вы не можете отвечать на сообщения
Вы не можете редактировать свои сообщения
Вы не можете удалять свои сообщения
Вы не можете голосовать в опросах
Вы не можете прикреплять файлы к сообщениям
Вы можете скачивать файлы