Статистика раздачи
Размер:  1,37 GB   |    Зарегистрирован:  3 месяца 11 дней   |    Скачан:  0 раз

Полного источника не было: Никогда

 
   
 
 

lopster ®

Пол:
Не указан
Стаж:
3 месяца 11 дней
Сообщений:
612

Уснувший пассажир
Жанр: Детектив
Год выпуска: 1993
Продолжительность: 01:17:18
Режиссёр: Ярополк Лапшин
В ролях: Анатолий Кузнецов, Ольга Остроумова, Александр Пашутин, Владимир Кашпур, Шавкат Газиев, Валерий Храмцов, Анатолий Лесников, Сейдулла Молдаханов, Виталий Краев
Описание: На затерянном в степи аэродроме совершает непредвиденную посадку самолет, следующий рейсом из Москвы в Сингапур - столицу одного из азиатских государств. Пока экипаж производит ремонт, пассажиры прогуливаются неподалеку. Вскоре в салоне воздушного судна находят труп иностранного туриста, летевшего первым классом. Среди тех, кто летит этим рейсом, оказывается бывший полковник Московского уголовного розыска Смирнов, который сразу решает провести расследование преступления и найти виновного. Кому же мог помешать несчастный иностранец? Случайная он жертва, или убийство было тщательно спланировано? Бывший следователь по особо важным делам начинает наблюдать за всеми - ведь убийцей может оказаться кто угодно...
Доп. информация:
Автор релиза -
Источник аудио и видео для рипа - HDTV 1080i TS - моя запись с канала Первый HD - http://cybertorrent.ru/viewtopic.php?t=5378771
Реставрация изображения от Первого канала!



Сэмпл: https://yadi.sk/i/sd3Mfa7r3GMDbB
Рекламы нет!
Качество видео: HDTVRip
Формат видео: AVI
Видео: XviD, 720x544 (4:3), 25.000 fps, 2331 kbps, 0.238 bit/pixel
Аудио: Русский AC3, 48000 Гц, 2ch, 192 kbps

MediaInfo

Общее
Полное имя : D:\Уснувший.пассажир.1993.HDTVRip-ylnian.avi
Формат : AVI
Формат/Информация : Audio Video Interleave
Размер файла : 1,37 Гбайт
Продолжительность : 1 ч. 17 м.
Общий поток : 2532 Кбит/сек
Название фильма : Уснувший.пассажир.1993.HDTVRip-ylnian
Программа кодирования : VirtualDubMod 1.5.10.2 (build 2540/release)
Библиотека кодирования : VirtualDubMod build 2540/release
Видео
Идентификатор : 0
Формат : MPEG-4 Visual
Профиль формата : Advanced Simple@L5
Параметр BVOP формата : 1
Параметр QPel формата : Нет
Параметр GMC формата : Без точки перехода
Параметр матрицы формата : Default (MPEG)
Идентификатор кодека : XVID
Идентификатор кодека/Подсказка : XviD
Продолжительность : 1 ч. 17 м.
Битрейт : 2331 Кбит/сек
Ширина : 720 пикселей
Высота : 544 пикселя
Соотношение сторон : 4:3
Частота кадров : 25,000 кадров/сек
Цветовое пространство : YUV
Субдискретизация насыщенности : 4:2:0
Битовая глубина : 8 бит
Тип развёртки : Прогрессивная
Метод сжатия : С потерями
Бит/(Пиксели*Кадры) : 0.238
Размер потока : 1,26 Гбайт (92%)
Библиотека кодирования : XviD 67
Аудио
Идентификатор : 1
Формат : AC-3
Формат/Информация : Audio Coding 3
Параметр Endianness формата : Big
Идентификатор кодека : 2000
Продолжительность : 1 ч. 17 м.
Вид битрейта : Постоянный
Битрейт : 192 Кбит/сек
Каналы : 2 канала
Расположение каналов : Front: L R
Частота : 48,0 КГц
Частота кадров : 31,250 кадров/сек (1536 spf)
Битовая глубина : 16 бит
Метод сжатия : С потерями
Размер потока : 106 Мбайт (8%)
Выравнивание : Разделение по промежуткам
Продолжительность промежутка : 40 мс. (1,00 видеокадр)
Время предзагрузки промежутка : 500 мс.
Заголовок : RUS
ServiceKind/String : Complete Main

Сравнение

Сравнение с SATRip-ом by Sermonster - http://screenshotcomparison.com/comparison/204657
Сравнение с SATRip-ом by xelon2006 - http://screenshotcomparison.com/comparison/204659

Скриншот c названием фильма

[cybertorrent.ru].t242.torrent 
Торрент: Зарегистрирован [ 2018-02-15 15:34 ] · 82BC6307F9CD293DFF4497F2C6EA9825B3A7FBDE

Скачать .torrent

Скачать

14 KB

Статус: проверено
Скачан: 0 раз
Размер: 1,37 GB
Профиль [ЛС]
Показать сообщения:    

Текущее время: 27-Май 05:30

Часовой пояс: UTC ± 0



Вы не можете начинать темы
Вы не можете отвечать на сообщения
Вы не можете редактировать свои сообщения
Вы не можете удалять свои сообщения
Вы не можете голосовать в опросах
Вы не можете прикреплять файлы к сообщениям
Вы можете скачивать файлы