Статистика раздачи
Размер:  883 MB   |    Зарегистрирован:  2 дня 14 часов   |    Скачан:  0 раз
Сидов:  2  [  0 KB/s  ]   Личеров:  3  [  0 KB/s  ]   Подробная статистика пиров
 
   
 
 

Alino4ka ®

Пол:
Не указан
Стаж:
3 дня
Сообщений:
56

Калигула. Что это было / Caligula with Mary Beard
Дата/Год выпуска: 2013
Страна: Великобритания
Жанр: Документальный, история, познавательный
Продолжительность: 00:59:02
Перевод: Профессиональный (дублированный)
Доп. инфо о переводе: Видеофильм ТВ
Русские субтитры: нет
Оригинальная аудиодорожка: нет
Режиссер: Хьюго Макгрегор / Hugo Macgregor
Телеканал: История
Описание: Калигулу называли по разному: безжалостный, преступный, жестокий, инфантильный, извращенец, скандалист, манипулятор. Он правил самой сильной в мире империей с садистской жестокостью. Он был мстительный, опасный и безответственный. Власть его террора длилась всего 1400 дней, но даже сегодня всем знакомо его имя. Калигула действительно зло во плоти. Он был очень молод, когда сел на трон. Трон дал этому неопытному человеку полную власть и испортил его. Он вошел в учебник истории как один из самых худших. Был ли он безумцем или просто злодеем, Калигула остался примером того, как безграничная власть уродует человека. Он действительно стал бессмертным, чего всегда так жаждал. Ведь даже сегодня, через 2000 лет после его царства террора, дурная слава о нем живет.
Сэмпл: http://multi-up.com/1134169
качество: IPTVRip
формат: MKV
Видео: 720x384 (1.85:1), в 25,000 кадров/сек, 1960 Кбит/сек, AVC (PAL) (High@L4) (CABAC / 3 Ref
Аудио: 48,0 КГц, 2 канала, AAC (LC), ~128 kbps

MediaInfo

General
Unique ID : 207736313895869627672328939219878871658 (0x9C488F0A08E5793A9955095CCEF3026A)
Complete name : E:\Pshichko66\Na zapis'\Документальные фильмы\Kaligula. Chto jeto bylo.mkv
Format : Matroska
Format version : Version 4 / Version 2
File size : 883 MiB
Duration : 59 min 2 s
Overall bit rate mode : Variable
Overall bit rate : 2 090 kb/s
Encoded date : UTC 2017-01-05 04:21:09
Writing application : mkvmerge v8.5.1 ('Where you lead I will follow') 64bit
Writing library : libebml v1.3.3 + libmatroska v1.4.4
Video
ID : 1
Format : AVC
Format/Info : Advanced Video Codec
Format profile : High@L4
Format settings, CABAC : Yes
Format settings, ReFrames : 3 frames
Codec ID : V_MPEG4/ISO/AVC
Duration : 59 min 2 s
Bit rate mode : Variable
Bit rate : 1 960 kb/s
Maximum bit rate : 2 003 kb/s
Width : 720 pixels
Height : 384 pixels
Display aspect ratio : 1.85:1
Frame rate mode : Constant
Frame rate : 25.000 FPS
Standard : PAL
Color space : YUV
Chroma subsampling : 4:2:0
Bit depth : 8 bits
Scan type : Progressive
Bits/(Pixel*Frame) : 0.284
Stream size : 828 MiB (94%)
Language : Russian
Default : Yes
Forced : No
Color range : Full
Color primaries : BT.601 PAL
Transfer characteristics : BT.470 System B, BT.470 System G
Matrix coefficients : BT.601
Audio
ID : 2
Format : AAC
Format/Info : Advanced Audio Codec
Format profile : LC
Codec ID : A_AAC
Duration : 59 min 1 s
Bit rate : 128 kb/s
Channel(s) : 2 channels
Channel positions : Front: L R
Sampling rate : 48.0 kHz
Frame rate : 46.875 FPS (1024 spf)
Compression mode : Lossy
Delay relative to video : 9 ms
Stream size : 54.0 MiB (6%)
Language : Russian
Default : Yes
Forced : No

Скриншоты

[cybertorrent.ru].t2985.torrent 
Торрент: Зарегистрирован [ 2018-02-16 14:35 ] · 3026A014E6387E7517BAECB872B037F6685784C7

Скачать .torrent

Скачать

35 KB

Статус: проверено
Скачан: 0 раз
Размер: 883 MB
terms.php
Профиль [ЛС]
Показать сообщения:    

Текущее время: 19-Фев 05:28

Часовой пояс: UTC ± 0



Вы не можете начинать темы
Вы не можете отвечать на сообщения
Вы не можете редактировать свои сообщения
Вы не можете удалять свои сообщения
Вы не можете голосовать в опросах
Вы не можете прикреплять файлы к сообщениям
Вы можете скачивать файлы