Статистика раздачи
Размер:  1,28 GB   |    Зарегистрирован:  3 месяца 9 дней   |    Скачан:  0 раз

Полного источника не было: Никогда

Личеров:  2  [  0 KB/s  ]  
 
   
 
 

kex ®

Пол:
Не указан
Стаж:
3 месяца 10 дней
Сообщений:
324

BBC: Искусство Китая (3 серии из 3х) / The Art of China
Дата/Год выпуска: 2014
Страна: Великобритания
Жанр: документальный, искусство
Продолжительность: 3 серии по ~ 50 мин.
Перевод: Студийный (одноголосый закадровый)
Доп. инфо о переводе: SDI- Мedia по заказу ТПО "Ред-медиа"
Русские субтитры: нет
Режиссер: Майк Кристи / Mike Christie
Телеканал: 365 Дней
Описание: Сериал рассказывает о великой восточной цивилизации, подарившей миру огромное количество открытий в самых разных областях человеческих знаний: медицине, науке, культуре, архитектуре и многом другом. Вас ждет замечательное путешествие в многовековой мир истории искусства Китая.
Доп. информация: В этой версии фильма нет ведущего Эндрю-Грэма Диксона, заявленного в большинстве анонсов этого фильма. Перевод оригинальной речи других участников фильма (искусствоведов, художников), кроме русского перевода, сопровождается английскими субтитрами.
Сэмпл: http://multi-up.com/1135050
качество: DVBRip
формат: AVI
Видео: Xvid 704x416 25fps 1220kbps [V: mpeg4 advanced simple profile, yuv420p, 704x416, 1220 kb/s
Аудио: MP3 48000Hz stereo 128kbps [A: mp3, 48000 Hz, stereo, 128 kb/s

Список выпусков/серий

01. В поисках рая / Searching for Paradise
02. Золотой век / The Golden Age
03. Когда Восток встречается с Западом / When East Meets West

MediaInfo

General
Complete name : F:\Искусство\Искусство Китая\1. В поисках рая.avi
Format : AVI
Format/Info : Audio Video Interleave
File size : 506 MiB
Duration : 51mn 56s
Overall bit rate : 1 362 Kbps
Video
ID : 0
Format : MPEG-4 Visual
Format profile : Advanced Simple@L5
Format settings, BVOP : 2
Format settings, QPel : No
Format settings, GMC : No warppoints
Format settings, Matrix : Default (H.263)
Codec ID : XVID
Codec ID/Hint : XviD
Duration : 51mn 56s
Bit rate : 1 221 Kbps
Width : 704 pixels
Height : 416 pixels
Display aspect ratio : 1.692
Frame rate : 25.000 fps
Color space : YUV
Chroma subsampling : 4:2:0
Bit depth : 8 bits
Scan type : Progressive
Compression mode : Lossy
Bits/(Pixel*Frame) : 0.167
Stream size : 454 MiB (90%)
Writing library : XviD 64
Audio
ID : 1
Format : MPEG Audio
Format version : Version 1
Format profile : Layer 3
Codec ID : 55
Codec ID/Hint : MP3
Duration : 51mn 56s
Source duration : 51mn 56s
Bit rate mode : Constant
Bit rate : 128 Kbps
Channel(s) : 2 channels
Sampling rate : 48.0 KHz
Compression mode : Lossy
Stream size : 47.6 MiB (9%)
Alignment : Split accross interleaves
Interleave, duration : 24 ms (0.60 video frame)
Другие мои раздачи: архитектура, недвижимость, живопись http://cybertorrent.ru/tracker.php?rid=8171303
[cybertorrent.ru].t3001.torrent 
Торрент: Зарегистрирован [ 2018-02-16 14:35 ] · 47803A50441BC64DF7FE7C3E63FEC7268CD1388F

Скачать .torrent

Скачать

13 KB

Статус: проверено
Скачан: 0 раз
Размер: 1,28 GB
Профиль [ЛС]
Показать сообщения:    

Текущее время: 26-Май 08:07

Часовой пояс: UTC ± 0



Вы не можете начинать темы
Вы не можете отвечать на сообщения
Вы не можете редактировать свои сообщения
Вы не можете удалять свои сообщения
Вы не можете голосовать в опросах
Вы не можете прикреплять файлы к сообщениям
Вы можете скачивать файлы