Статистика раздачи
Размер:  2,99 GB   |    Зарегистрирован:  6 месяцев 2 дня   |    Скачан:  0 раз

Полного источника не было: Никогда

 
   
 
 

antikvar ®

Пол:
Не указан
Стаж:
6 месяцев 4 дня
Сообщений:
50

Человек-Паук / Marvel's Spider-Man- Страна: США
Жанр: Фантастика, Приключения
Продолжительность: ~22 мин.
Год выпуска: 2017
Перевод: Любительский (двухголосый закадровый) (Central Show)
Режиссёр: Филип Пигнотти, Эрик Радомски / Philip Pignotti, Eric Radomski
Роли озвучивали: Робби Даймонд, Макс Миттельман, Нэнси Лайнари, Алистер Данкан-Озвучание (Central Show): Денис Коровин и Татьяна Бердинских
Работа со звуком: Дмитрий Рыбин-Описание: Увлекательный мультсериал, вышедший на замену «Совершенному Человеку-пауку», является очередной перезагрузкой всемирно известной истории комиксов Marvel о старшекласснике Питере Паркере, получившем уникальные сверхспособности после того, как его укусил радиоактивный паук во время школьной поездки в Оскорп. Будучи смышлёным пареньком, невероятно одарённым в науке, из-за чего многие одноклассники считают его «ботаном», Паркер сразу же принимается разбираться в полученных способностях, стараясь использовать при этом сугубо научный подход. Пользуясь научными познаниями, Питер создает устройство, стреляющее паутиной, а через некоторое время, надев на себя чудной костюм, полностью скрывающий его личность, парень отправляется на поиски славы и всеобщего признания. Однажды, готовясь к поединку против рестлера, Паркер игнорирует мелкого воришку, убегающего от полицейских, считая, что ловить преступников в первую очередь работа полиции, а не его. В тот момент наш герой даже представить себе не мог, что именно этот негодяй в ближайшее время ограбит и убьёт его дядю Бена. Отыскав убийцу и в отчаянии осознав, что именно он мог предотвратить ужасную трагедию, Питер переосмысливает фразу погибшего дяди Бена «большая сила влечёт за собой большую ответственность», после чего решает лично бороться с преступностью.-Список серий:
01 Horizon High (Part I) / Школа Горизонт (Часть I)
02 Horizon High (Part II) / Школа Горизонт (Часть II)
03 Osborn Academy / Академия Осборн
04 A Day in the Life / День из Жизни-Качество: WEB-DL 720p
Формат: MKV
Видео: MPEG-4 AVC, 1280x720, 23.976 fps, ~4000 kbps
Аудио 1: Русский, AC3 Dolby Digital, 2 ch, 384 kbps, 48 kHz
Аудио 2: Английский, AC3 Dolby Digital, 6 ch, 384 kbps, 48 kHz
Субтитры: Английские | SubRip
Сэмпл
WEB-DL 1080p
Все раздачи мультсериала

Скриншоты

Подробные технические данные

Общее
Уникальный идентификатор : 184596680570430884703925992556858193663 (0x8AE0070891C099F2980F8BB3724C36FF)
Полное имя : D:\Stuff\Marvels.Spider-Man.S01.2017.H264.WEB-DL.720p-SergeZuich\01 Horizon High (Part I).mkv
Формат : Matroska
Версия формата : Version 4 / Version 2
Размер файла : 764 Мбайт
Продолжительность : 22 м.
Общий поток : 4831 Кбит/сек
Дата кодирования : UTC 2017-10-15 10:38:53
Программа кодирования : mkvmerge v8.3.0 ('Over the Horizon') 64bit
Библиотека кодирования : libebml v1.3.1 + libmatroska v1.4.2
Видео
Идентификатор : 1
Формат : AVC
Формат/Информация : Advanced Video Codec
Профиль формата : High@L3.1
Параметр CABAC формата : Нет
Параметр ReFrames формата : 2 кадра
Идентификатор кодека : V_MPEG4/ISO/AVC
Продолжительность : 22 м.
Битрейт : 3967 Кбит/сек
Ширина : 1280 пикселей
Высота : 720 пикселей
Соотношение сторон : 16:9
Режим частоты кадров : Постоянный
Частота кадров : 23,976 кадра/сек
Цветовое пространство : YUV
Субдискретизация насыщенности : 4:2:0
Битовая глубина : 8 бит
Тип развёртки : Прогрессивная
Бит/(Пиксели*Кадры) : 0.180
Размер потока : 628 Мбайт (82%)
Заголовок : Horizon High (Part I)
Default : Да
Forced : Нет
Цветовой диапазон : Limited
Основные цвета : BT.709
Характеристики трансфера : BT.709
Коэффициенты матрицы : BT.709
Аудио #1
Идентификатор : 2
Формат : AC-3
Формат/Информация : Audio Coding 3
Расширение режима : CM (complete main)
Параметр Endianness формата : Big
Идентификатор кодека : A_AC3
Продолжительность : 22 м.
Вид битрейта : Постоянный
Битрейт : 384 Кбит/сек
Каналы : 2 канала
Расположение каналов : Front: L R
Частота : 48,0 КГц
Метод сжатия : С потерями
Размер потока : 60,8 Мбайт (8%)
Заголовок : DVO [Денис Коровин и Татьяна Бердинских] - AC3 Dolby Digital, 2ch, 384 kbps, 48 kHz
Язык : Russian
Default : Да
Forced : Нет
Аудио #2
Идентификатор : 3
Формат : AC-3
Формат/Информация : Audio Coding 3
Расширение режима : CM (complete main)
Параметр Endianness формата : Big
Идентификатор кодека : A_AC3
Продолжительность : 22 м.
Вид битрейта : Постоянный
Битрейт : 384 Кбит/сек
Каналы : 6 каналов
Расположение каналов : Front: L C R, Side: L R, LFE
Частота : 48,0 КГц
Метод сжатия : С потерями
Размер потока : 60,8 Мбайт (8%)
Заголовок : Original - AC3 Dolby Digital, 6ch, 384 kbps, 48 kHz
Язык : English
Default : Нет
Forced : Нет
Текст
Идентификатор : 4
Формат : UTF-8
Идентификатор кодека : S_TEXT/UTF8
Идентификатор кодека/Информация : UTF-8 Plain Text
Заголовок : Horizon High (Part I)
Язык : English
Default : Нет
Forced : Нет
[cybertorrent.ru].t3500.torrent 
Торрент: Зарегистрирован [ 2018-02-16 23:01 ] · DD21E2B7490A13FDE2E209C0B542174B9A4443EA

Скачать .torrent

Скачать

16 KB

Статус: проверено
Скачан: 0 раз
Размер: 2,99 GB
Профиль [ЛС]
Показать сообщения:    

Текущее время: 19-Авг 17:27

Часовой пояс: UTC ± 0



Вы не можете начинать темы
Вы не можете отвечать на сообщения
Вы не можете редактировать свои сообщения
Вы не можете удалять свои сообщения
Вы не можете голосовать в опросах
Вы не можете прикреплять файлы к сообщениям
Вы можете скачивать файлы
Torrents24.ru открытый BitTorrent Torrents24.pl открытый BitTorrent CyberTorrent.ru открытый BitTorrent BtList.ru рейтинг BitTorrent трекеров Яндекс.Метрика