Статистика раздачи
Размер:  744 MB   |    Зарегистрирован:  3 месяца 5 дней   |    Скачан:  0 раз

Полного источника не было: Никогда

Личеров:  1  [  0 KB/s  ]  
 
   
 
 

lopster ®

Пол:
Не указан
Стаж:
3 месяца 5 дней
Сообщений:
612

Черная вода
Выпущено: Россия / Yellow, Black and White
Жанр: ужасы, драма
Год выпуска: 2017
Продолжительность: 01:52:39-Режиссер:
Роман Каримов-В ролях:
Ирина Старшенбаум, Евгений Алёхин, Дмитрий Богдан, Сергей Белый, Наталья Шапошникова, Инна Егорова-Описание:
Трое молодых людей — Максим, его брат Пётр и его новая девушка Полина — приезжают в забытую богом деревню, где поселяются на старом заброшенном корабле, у которого среди местных очень дурная слава.
Неожиданно ночью Полина исчезает, и братья бросаются на её поиски. А когда она так же неожиданно возвращается, вокруг начинают происходить странные вещи. Максим опасается за девушку, а у его брата возникают подозрения, что это… уже не Полина.- -Качество видео: WEB-DLRip
Формат видео: AVI
Видео: 688x288 (2.39:1), 24.000 fps, XviD build 73 ~786 kbps avg, 0.17 bit/pixel
Аудио: 48 kHz, MPEG Layer 3, 2 ch, ~128.00 kbps avg-Скачать сэмпл-

MediaInfo

Код:Format : AVI
Format/Info : Audio Video Interleave
File size : 744 MiB
Duration : 1 h 52 min
Overall bit rate : 924 kb/s
Writing application : VirtualDubMod 1.5.10.3 | www.virtualdub-fr.org || (build 2550/release)
Writing library : VirtualDubMod build 2550/release
Video
ID : 0
Format : MPEG-4 Visual
Format profile : Advanced Simple@L5
Format settings, BVOP : 1
Format settings, QPel : No
Format settings, GMC : No warppoints
Format settings, Matrix : Default (H.263)
Codec ID : XVID
Codec ID/Hint : XviD
Duration : 1 h 52 min
Bit rate : 787 kb/s
Width : 688 pixels
Height : 288 pixels
Display aspect ratio : 2.40:1
Frame rate : 24.000 FPS
Color space : YUV
Chroma subsampling : 4:2:0
Bit depth : 8 bits
Scan type : Progressive
Compression mode : Lossy
Bits/(Pixel*Frame) : 0.165
Stream size : 634 MiB (85%)
Writing library : XviD 73
Audio
ID : 1
Format : MPEG Audio
Format version : Version 1
Format profile : Layer 3
Codec ID : 55
Codec ID/Hint : MP3
Duration : 1 h 52 min
Bit rate mode : Constant
Bit rate : 128 kb/s
Channel(s) : 2 channels
Sampling rate : 48.0 kHz
Compression mode : Lossy
Stream size : 103 MiB (14%)
Alignment : Aligned on interleaves
Interleave, duration : 42 ms (1.00 video frame)
Interleave, preload duratio : 504 ms
Writing library : LAME3.99r
Encoding settings : -m s -V 4 -q 2 -lowpass 17 -b 128

Скриншоты

[cybertorrent.ru].t351.torrent 
Торрент: Зарегистрирован [ 2018-02-15 15:48 ] · 3E0BD4ECFABF9D385104E2D524496DE4D5CB320A

Скачать .torrent

Скачать

15 KB

Статус: проверено
Скачан: 0 раз
Размер: 744 MB
Профиль [ЛС]
Показать сообщения:    

Текущее время: 20-Май 23:39

Часовой пояс: UTC ± 0



Вы не можете начинать темы
Вы не можете отвечать на сообщения
Вы не можете редактировать свои сообщения
Вы не можете удалять свои сообщения
Вы не можете голосовать в опросах
Вы не можете прикреплять файлы к сообщениям
Вы можете скачивать файлы