Статистика раздачи
Размер:  1,16 GB   |    Зарегистрирован:  6 дней   |    Скачан:  0 раз
Сидов:  81  [  0 KB/s  ]   Личеров:  3  [  0 KB/s  ]   Подробная статистика пиров
 
   
 
 

lopster ®

Пол:
Не указан
Стаж:
6 дней
Сообщений:
559

Ковчег- Жанр: Мелодрама
Год выпуска: 2017
Продолжительность: 01:22:56-Режиссёр: Александр Котт-В ролях: Александр Балуев, Вера Глаголева, Катерина Шпица, Павел Баршак, Дмитрий Горевой, Михаил Горевой, Ольга Лерман-Описание: В одном из приморских городков живет удивительный человек Николай со своей семьей. Он знаменит на всю округу, и если что-то случается с кем-то из жителей, сразу обращаются к нему. Как к высшему судье и надежному заступнику. За это его и прозвали Ноем, а его гостиницу – ковчегом. Жена Николая Анна – его верный друг, она полностью разделяет его точку зрения на мир и во всем старается ему помочь.
Однажды Ной узнает, что у него есть внук (внебрачный сын племянника Ноя). Он знакомится с Нино, матерью мальчика, однако встречу нельзя назвать родственной. Но, как известно, от ненависти до любви один шаг, и внезапно на смену их постоянным перебранкам приходит сильное и серьезное чувство…
Сэмпл: http://multi-up.com/1165626
Качество видео: HDTVRip
Формат видео: AVI
Видео: 720x400 (16:9), 25.000 fps, XviD build 73, 1800 Kbps, 0.25 Bits/Pixel
Аудио: 48 kHz, AC3 Dolby Digital, 2 ch, 192 Kbps
Релиз:

MediaInfo

General
Complete name : Downloads\Kovcheg.HDTVRip.GeneralFilm.avi
Format : AVI
Format/Info : Audio Video Interleave
File size : 1.16 GiB
Duration : 1h 22mn
Overall bit rate : 2 001 Kbps
Writing application : VirtualDubMod 1.5.10.3 (build 2550/release)
Writing library : VirtualDubMod build 2550/release
Video #0
ID : 0
Format : MPEG-4 Visual
Format profile : Advanced Simple@L5
Format settings, BVOP : 1
Format settings, QPel : No
Format settings, GMC : No warppoints
Format settings, Matrix : Custom
Codec ID : XVID
Codec ID/Hint : XviD
Duration : 1h 22mn
Bit rate : 1 800 Kbps
Width : 720 pixels
Height : 400 pixels
Display aspect ratio : 16:9
Frame rate : 25.000 fps
Color space : YUV
Chroma subsampling : 4:2:0
Bit depth : 8 bits
Scan type : Progressive
Compression mode : Lossy
Bits/(Pixel*Frame) : 0.250
Stream size : 1.04 GiB (90%)
Writing library : XviD 73
Audio #1
ID : 1
Format : AC-3
Format/Info : Audio Coding 3
Mode extension : CM (complete main)
Format settings, Endianness : Big
Codec ID : 2000
Duration : 1h 22mn
Bit rate mode : Constant
Bit rate : 192 Kbps
Channel(s) : 2 channels
Channel positions : Front: L R
Sampling rate : 48.0 KHz
Bit depth : 16 bits
Compression mode : Lossy
Stream size : 114 MiB (10%)
Alignment : Split accross interleaves
Interleave, duration : 40 ms (1.00 video frame)
Interleave, preload duration : 500 ms

Скриншот c названием фильма

Скриншоты

[cybertorrent.ru].t353.torrent 
Торрент: Зарегистрирован [ 2018-02-15 15:48 ] · F68C529EF245A9C9F102C4E58461F39ABC813DA5

Скачать .torrent

Скачать

12 KB

Статус: проверено
Скачан: 0 раз
Размер: 1,16 GB
terms.php
Профиль [ЛС]
Показать сообщения:    

Текущее время: 21-Фев 17:08

Часовой пояс: UTC ± 0



Вы не можете начинать темы
Вы не можете отвечать на сообщения
Вы не можете редактировать свои сообщения
Вы не можете удалять свои сообщения
Вы не можете голосовать в опросах
Вы не можете прикреплять файлы к сообщениям
Вы можете скачивать файлы