Статистика раздачи
Размер:  7,36 GB   |    Зарегистрирован:  4 дня   |    Скачан:  0 раз

Полного источника не было: Никогда

 
   
 
 

plus ®

Пол:
Не указан
Стаж:
6 дней
Сообщений:
94

Боб - прожигатель жизни / Боб - счастливчик / Bob le flambeur / Bob the gambler
Страна: Франция
Студия: Franay L.T.C., Truquages LAX
Жанр: драма
Год выпуска: 1956
Продолжительность: 01:42:15
Перевод: Профессиональный (двухголосый закадровый)
Субтитры: английские
Оригинальная аудиодорожка: французский
Режиссер: Жан-Пьер Мельвиль / Jean-Pierre Melville
В ролях: Изабель Кори, Даниэль Коши, Роже Дюшен, Ги Декомбль, Андре Гарэ, Жерар Бур, Клод Серваль, Колетт Флёри, Рене Авар, Симона Пари, Говард Вернон, Анри Аллам, Джермейн Лихт, Иветт Амиран, Доминик Антуан, Эмиль Кювелье, Янник Арвель, Анник Бертран, Дуилио Кармине, Роланд Чарбо, Альбер Кувелье, Пьер Дюрре, Крис Керсен, Эвелин Рей, Жан-Мари Робен, Кичи, Андре, Франсуа Андре, Кути, Анри Декэ, Макс Дежан, Жан-Франсуа Дрэч, Франсуа Жир, Морис Магалон, Жан-Пьер Мельвиль, Жан-Мари Ривьер, Жан Россиньоль, Луи Сентев, Андре Сальге, Ро Тетельман
Описание: Боб, бандит и мошенник, на грани банкротства, поэтому он решает, несмотря на предостережения друга, крупного полицейского начальника, обмануть казино Довиль. Всё распланировано до мелочей, однако полиции становится известно о предстоящей афере. Тем временем в казино Боб начинают свою авантюру.
Доп. информация: В найденный в сети рип, сделанный с этого исходника - http://rutracker.org/forum/viewtopic.php?t=5487314 - и содержащий французский оригинал и английские субтитры, добавлена синхронизированная Нордером двухголоска из релиза - http://rutracker.org/forum/viewtopic.php?t=4828693.
Сэмпл: https://cloud.mail.ru/public/Bc15/osmX41V3p
Тип релиза: BDRip 720p
Контейнер: MKV
Видео: 9342 Кбит/сек, AVC 986*720 (4:3), 24,000 кадра/сек, CABAC
Аудио: Русский, 192 Кбит/сек, 48,0 КГц, 16 бит, 2 канала, AC-3
Аудио 2: Французский, 768 Кбит/сек, 48,0 КГц, 24 бит, 2 канала, DTS
Формат субтитров: UTF

MediaInfo

Общее
Уникальный идентификатор : 254072290202378652791187942242948579404 (0xBF248B0D73322F8EB7558481E4B9804C)
Полное имя : I:\MONAR\Художественные фильмы\Зарубежное кино\Боб - прожигатель жизни (1956) BDRip 720p.mkv
Формат : Matroska
Версия формата : Version 4 / Version 2
Размер файла : 7,36 Гбайт
Продолжительность : 1 ч. 42 м.
Общий поток : 10,3 Мбит/сек
Название фильма : Bob le flambeur (1956)
Дата кодирования : UTC 2017-12-02 10:55:07
Программа кодирования : mkvmerge v18.0.0 ('Apricity') 64-bit
Библиотека кодирования : libebml v1.3.5 + libmatroska v1.4.8
Видео
Идентификатор : 1
Формат : AVC
Формат/Информация : Advanced Video Codec
Профиль формата : High@L4.1
Настройки формата : CABAC / 11 Ref Frames
Параметр CABAC формата : Да
Параметр RefFrames формата : 11 кадров
Идентификатор кодека : V_MPEG4/ISO/AVC
Продолжительность : 1 ч. 42 м.
Битрейт : 9342 Кбит/сек
Ширина : 986 пикселей
Высота : 720 пикселей
Соотношение сторон : 4:3
Режим частоты кадров : Постоянный
Частота кадров : 24,000 кадра/сек
Цветовое пространство : YUV
Субдискретизация насыщенности : 4:2:0
Битовая глубина : 8 бит
Тип развёртки : Прогрессивная
Бит/(Пиксели*Кадры) : 0.548
Размер потока : 6,67 Гбайт (91%)
Библиотека кодирования : x264 core 152 r2851+58 429492e t_mod_Custom [8-bit@all X86_64]
Настройки программы : cabac=1 / ref=11 / deblock=1:-3:-3 / analyse=0x3:0x133 / me=tesa / subme=10 / psy=1 / fade_compensate=0.00 / psy_rd=1.06:0.00 / mixed_ref=1 / me_range=32 / chroma_me=1 / trellis=2 / 8x8dct=1 / cqm=0 / deadzone=21,11 / fast_pskip=0 / chroma_qp_offset=-2 / threads=12 / lookahead_threads=3 / sliced_threads=0 / nr=0 / decimate=1 / interlaced=0 / bluray_compat=0 / constrained_intra=0 / fgo=0 / bframes=16 / b_pyramid=2 / b_adapt=2 / b_bias=0 / direct=3 / weightb=1 / open_gop=0 / weightp=2 / keyint=250 / keyint_min=24 / scenecut=40 / intra_refresh=0 / rc_lookahead=250 / rc=crf / mbtree=0 / crf=17.8000 / qcomp=0.60 / qpmin=0:0:0 / qpmax=69:69:69 / qpstep=4 / vbv_maxrate=62500 / vbv_bufsize=78125 / crf_max=0.0 / nal_hrd=none / filler=0 / ip_ratio=1.30 / pb_ratio=1.20 / aq=3:0.58 / aq-sensitivity=11.00 / aq-factor=1.00:1.00:1.00 / aq2=0 / aq3=0
Язык : French
Default : Да
Forced : Нет
Цветовой диапазон : Limited
Основные цвета : BT.709
Характеристики трансфера : BT.709
Коэффициенты матрицы : BT.709
Аудио #1
Идентификатор : 2
Формат : AC-3
Формат/Информация : Audio Coding 3
Идентификатор кодека : A_AC3
Продолжительность : 1 ч. 42 м.
Вид битрейта : Постоянный
Битрейт : 192 Кбит/сек
Каналы : 2 канала
Расположение каналов : Front: L R
Частота : 48,0 КГц
Частота кадров : 31,250 кадров/сек (1536 SPF)
Битовая глубина : 16 бит
Метод сжатия : С потерями
Размер потока : 140 Мбайт (2%)
Заголовок : DVO
Язык : Russian
ServiceKind/String : Complete Main
Default : Да
Forced : Нет
Аудио #2
Идентификатор : 3
Формат : DTS
Формат/Информация : Digital Theater Systems
Идентификатор кодека : A_DTS
Продолжительность : 1 ч. 42 м.
Вид битрейта : Постоянный
Битрейт : 768 Кбит/сек
Каналы : 2 канала
Расположение каналов : Front: L R
Частота : 48,0 КГц
Частота кадров : 93,750 кадра/сек (512 SPF)
Битовая глубина : 24 бит
Метод сжатия : С потерями
Размер потока : 562 Мбайт (7%)
Заголовок : original
Язык : French
Default : Нет
Forced : Нет
Текст
Идентификатор : 4
Формат : UTF-8
Идентификатор кодека : S_TEXT/UTF8
Идентификатор кодека/Информация : UTF-8 Plain Text
Продолжительность : 1 ч. 41 м.
Битрейт : 36 бит/сек
ElementCount : 1005
Размер потока : 26,8 Кбайт (0%)
Заголовок : srt
Язык : English
Default : Нет
Forced : Нет
Меню
00:00:00.000 : en:Chapter 1
00:08:12.792 : en:Chapter 2
00:21:36.917 : en:Chapter 3
00:29:57.625 : en:Chapter 4
00:41:11.625 : en:Chapter 5
00:47:42.000 : en:Chapter 6
00:54:28.625 : en:Chapter 7
00:59:44.375 : en:Chapter 8
01:04:29.000 : en:Chapter 9
01:11:06.542 : en:Chapter 0
01:21:58.542 : en:Chapter 11
01:35:22.917 : en:Chapter 12

Скриншоты

[cybertorrent.ru].t3864.torrent 
Торрент: Зарегистрирован [ 2018-02-16 23:01 ] · C45826F20D0E3E40474B083A8440B4FB198218BD

Скачать .torrent

Скачать

37 KB

Статус: проверено
Скачан: 0 раз
Размер: 7,36 GB
terms.php
Профиль [ЛС]
Показать сообщения:    

Текущее время: 21-Фев 17:10

Часовой пояс: UTC ± 0



Вы не можете начинать темы
Вы не можете отвечать на сообщения
Вы не можете редактировать свои сообщения
Вы не можете удалять свои сообщения
Вы не можете голосовать в опросах
Вы не можете прикреплять файлы к сообщениям
Вы можете скачивать файлы