Статистика раздачи
Размер:  2,35 GB   |    Зарегистрирован:  6 дней   |    Скачан:  0 раз

Полного источника не было: Никогда

 
   
 
 

lopster ®

Пол:
Не указан
Стаж:
6 дней
Сообщений:
559

Гоголь. Начало
«Самая тёмная ночь перед рассветом»
- Год выхода: 2017
Выпущено: Россия / Продюсерский центр «Среда»
Жанр: приключения, триллер, детектив
Продолжительность: 01:46:42
Навигация по главам: Есть (17 глав)-Режиссер:
Егор Баранов-В ролях:
Александр Петров, Олег Меньшиков, Евгений Сытый, Таисия Вилкова, Артем Ткаченко, Юлия Франц, Евгений Стычкин, Ян Цапник, Сергей Бадюк, Марта Тимофеева-О фильме:
Казаки, ведьмы, русалки, утопленницы и другие обитатели Диканьки встречаются лицом к лицу со своим создателем Николаем Гоголем, молодым писарем из Петербурга, который страдает загадочными припадками и может общаться с персонажами из потустороннего мира. Вместе со своим начальником, блестящим столичным следователем Яковым Гуро, начинающий писатель приезжает на Полтавщину расследовать таинственные убийства девушек. Здесь же он встречает свою любовь, которой суждено сыграть роковую роль в его судьбе. Но хватит ли юному литератору духу противостоять невообразимому? Ведь по слухам, которые активно разносят напуганные местные жители, за преступлениями стоит не кто иной, как сам Дьявол в обличии черного всадника.-Релиз групп | | КиноПоиск | Сэмпл |-Качество: WEB-DLRip-AVC [Gogol.Nachalo.2017.1080p.WEB-DL.Rus]
Формат: MKV
Видео: 1152x480 (2,40:1), 24,000 fps, x264 ~2710 kbps avg, 0.204 bit/pixel
Аудио: 48 kHz, AC3 Dolby Digital, 3/2 (L,C,R,l,r) + LFE ch, ~384 kbps avg - iTunes Russia-

Скриншоты

-

MediaInfo

Код:Общее
Полное имя : D:\Gogol`_Nachalo_2017_WEB-DLRip-AVC_by_Dalemake.mkv
Формат : Matroska
Версия формата : Version 4 / Version 2
Размер файла : 2,35 Гбайт
Продолжительность : 1 ч. 46 м.
Общий поток : 3157 Кбит/сек
Название фильма : [Gogol`_Nachalo_2017_All Films Rutracker.org_by Dalemake]
Дата кодирования : UTC 2017-10-02 08:51:11
Программа кодирования : mkvmerge v7.8.0 ('River Man') 32bit built on Apr 3 2015 12:11:22
Библиотека кодирования : libebml v1.3.1 + libmatroska v1.4.2
DURATION : 01:46:42.080000000
NUMBER_OF_FRAMES : 200065
NUMBER_OF_BYTES : 307299840
_STATISTICS_WRITING_APP : mkvmerge v7.8.0 ('River Man') 32bit built on Apr 3 2015 12:11:22
_STATISTICS_WRITING_DATE_UTC : 2017-10-02 08:51:11
_STATISTICS_TAGS : BPS DURATION NUMBER_OF_FRAMES NUMBER_OF_BYTES
Видео
Идентификатор : 1
Формат : AVC
Формат/Информация : Advanced Video Codec
Профиль формата : High@L4.1
Параметр CABAC формата : Да
Параметр ReFrames формата : 13 кадров
Идентификатор кодека : V_MPEG4/ISO/AVC
Продолжительность : 1 ч. 46 м.
Битрейт : 2710 Кбит/сек
Ширина : 1152 пикселя
Высота : 480 пикселей
Соотношение сторон : 2,40:1
Частота кадров : 24,000 кадра/сек
Цветовое пространство : YUV
Субдискретизация насыщенности : 4:2:0
Битовая глубина : 8 бит
Тип развёртки : Прогрессивная
Бит/(Пиксели*Кадры) : 0.204
Размер потока : 2,02 Гбайт (86%)
Заголовок : [Gogol`_Nachalo_2017_All Films Rutracker.org_by Dalemake]
Библиотека кодирования : x264 core 146 r2538 121396c
Настройки программы : cabac=1 / ref=13 / deblock=1:-2:-2 / analyse=0x3:0x133 / me=umh / subme=11 / psy=1 / psy_rd=1.00:0.00 / mixed_ref=1 / me_range=48 / chroma_me=1 / trellis=2 / 8x8dct=1 / cqm=0 / deadzone=21,11 / fast_pskip=1 / chroma_qp_offset=-4 / threads=6 / lookahead_threads=1 / sliced_threads=0 / nr=0 / decimate=0 / interlaced=0 / bluray_compat=0 / constrained_intra=0 / bframes=12 / b_pyramid=2 / b_adapt=2 / b_bias=0 / direct=1 / weightb=1 / open_gop=0 / weightp=2 / keyint=240 / keyint_min=23 / scenecut=40 / intra_refresh=0 / rc_lookahead=60 / rc=crf / mbtree=0 / crf=17.0 / qcomp=0.60 / qpmin=0 / qpmax=69 / qpstep=4 / vbv_maxrate=50000 / vbv_bufsize=62500 / crf_max=0.0 / nal_hrd=none / filler=0 / ip_ratio=1.40 / pb_ratio=1.35 / aq=1:1.00
Default : Да
Forced : Нет
Аудио
Идентификатор : 2
Формат : AC-3
Формат/Информация : Audio Coding 3
Расширение режима : CM (complete main)
Параметр Endianness формата : Big
Идентификатор кодека : A_AC3
Продолжительность : 1 ч. 46 м.
Вид битрейта : Постоянный
Битрейт : 384 Кбит/сек
Каналы : 6 каналов
Расположение каналов : Front: L C R, Side: L R, LFE
Частота : 48,0 КГц
Битовая глубина : 16 бит
Метод сжатия : С потерями
Размер потока : 293 Мбайт (12%)
Заголовок : iTunes Russia
Язык : Russian
Default : Да
Forced : Нет
Меню
00:00:00.000 : en:1
00:05:51.958 : en:2
00:10:17.083 : en:3
00:15:44.041 : en:4
00:22:17.791 : en:5
00:27:06.791 : en:6
00:33:22.416 : en:7
00:40:16.791 : en:8
00:46:53.207 : en:9
00:54:39.290 : en:10
01:00:58.581 : en:11
01:07:46.164 : en:12
01:13:40.289 : en:13
01:20:47.830 : en:14
01:26:59.955 : en:15
01:32:11.121 : en:16
01:38:34.496 : en:17
-
[cybertorrent.ru].t391.torrent 
Торрент: Зарегистрирован [ 2018-02-15 15:48 ] · 9979F2F9B174AC4C115E307EAFCC6F89A45A2598

Скачать .torrent

Скачать

12 KB

Статус: проверено
Скачан: 0 раз
Размер: 2,35 GB
terms.php
Профиль [ЛС]
Показать сообщения:    

Текущее время: 21-Фев 19:04

Часовой пояс: UTC ± 0



Вы не можете начинать темы
Вы не можете отвечать на сообщения
Вы не можете редактировать свои сообщения
Вы не можете удалять свои сообщения
Вы не можете голосовать в опросах
Вы не можете прикреплять файлы к сообщениям
Вы можете скачивать файлы