Статистика раздачи
Размер:  1,45 GB   |    Зарегистрирован:  3 месяца 10 дней   |    Скачан:  0 раз

Полного источника не было: Никогда

 
   
 
 

lopster ®

Пол:
Не указан
Стаж:
3 месяца 10 дней
Сообщений:
612

Вурдалаки
Жанр: фэнтази, мистика, ужасы
Год выпуска: 2016
Продолжительность: 01:21:44
Режиссёр: Сергей Гинзбург
В ролях: Константин Крюков, Аглая Шиловская, Михаил Пореченков, Роман Мадянов, Андрей Руденский, Михаил Жигалов, Игорь Хрипунов, Константин Милованов
Описание: Россия, 18 век. На краю Руси, в Карпатских горах, стоит Спасский монастырь, куда был сослан духовник императрицы Елизаветы монах Лавр. Какие тайны он унес с собой из столичного Петербурга, никто не ведал. Да и край, в который он был сослан, издревле считался неспокойным, о нем слагали легенды и рассказывали их только шепотом. Говорили мол, что в тех краях живет нечистая сила, оставшаяся там еще со времен набегов турецких... Спустя годы за Лавром из Петербурга прибывает Андрей, крестник самой императрицы Елизаветы. В Карпатах Андрей сталкивается со странным, пугающим и необычным, что не в состоянии объяснить его рациональный разум. А еще он встречает настоящую любовь, ради которой вступает в схватку со сверхъестественным злом....
Сэмпл: http://multi-up.com/1171667
Качество видео: BDRip (Исходник Blu-ray disc 1080p)
Формат видео: AVI
Видео: XviD 73, 720x304, (2,35:1), 23,976 fps, 2146 Кбит/с, 8 бит
Аудио: Русский (АС3, 6 ch (Front: L C R, Side: L R, LFE), 48,0 KHz, 384 Kbps)

MediaInfo

Общее
Полное имя : D:\Видеофильмы\В и д е о\Вурдалаки (мистика, фэнтези, ужасы 2016 год).avi
Формат : AVI
Формат/Информация : Audio Video Interleave
Размер файла : 1,45 Гбайт
Продолжительность : 1 ч. 21 м.
Общий поток : 2539 Кбит/сек
Программа кодирования : VirtualDubMod 1.5.10.3 | www.virtualdub-fr.org || (build 2550/release)
Библиотека кодирования : VirtualDubMod build 2550/release
Видео
Идентификатор : 0
Формат : MPEG-4 Visual
Профиль формата : Advanced Simple@L5
Параметр BVOP формата : 2
Параметр QPel формата : Нет
Параметр GMC формата : Без точки перехода
Параметр матрицы формата : Выборочная
Идентификатор кодека : XVID
Идентификатор кодека/Подсказка : XviD
Продолжительность : 1 ч. 21 м.
Битрейт : 2146 Кбит/сек
Ширина : 720 пикселей
Высота : 304 пикселя
Соотношение сторон : 2,35:1
Частота кадров : 23,976 (23976/1000) кадра/сек
Цветовое пространство : YUV
Субдискретизация насыщенности : 4:2:0
Битовая глубина : 8 бит
Тип развёртки : Прогрессивная
Метод сжатия : С потерями
Бит/(Пиксели*Кадры) : 0.409
Размер потока : 1,23 Гбайт (85%)
Библиотека кодирования : XviD 73
Аудио
Идентификатор : 1
Формат : AC-3
Формат/Информация : Audio Coding 3
Расширение режима : CM (complete main)
Параметр Endianness формата : Big
Идентификатор кодека : 2000
Продолжительность : 1 ч. 21 м.
Вид битрейта : Постоянный
Битрейт : 384 Кбит/сек
Каналы : 6 каналов
Расположение каналов : Front: L C R, Side: L R, LFE
Частота : 48,0 КГц
Частота кадров : 31,250 кадров/сек (1536 spf)
Метод сжатия : С потерями
Размер потока : 225 Мбайт (15%)
Выравнивание : Разделение по промежуткам
Продолжительность промежутка : 42 мс. (1,00 видеокадр)
Время предзагрузки промежутка : 500 мс.

Скриншот c названием фильма

[cybertorrent.ru].t395.torrent 
Торрент: Зарегистрирован [ 2018-02-15 15:48 ] · 37FA843201C68D0E62C170CEF8CBD223D429E9DF

Скачать .torrent

Скачать

15 KB

Статус: проверено
Скачан: 0 раз
Размер: 1,45 GB
Профиль [ЛС]
Показать сообщения:    

Текущее время: 25-Май 20:26

Часовой пояс: UTC ± 0



Вы не можете начинать темы
Вы не можете отвечать на сообщения
Вы не можете редактировать свои сообщения
Вы не можете удалять свои сообщения
Вы не можете голосовать в опросах
Вы не можете прикреплять файлы к сообщениям
Вы можете скачивать файлы