Статистика раздачи
Размер:  956 MB   |    Зарегистрирован:  3 месяца 4 дня   |    Скачан:  0 раз

Полного источника не было: Никогда

 
   
 
 

craft ®

Пол:
Не указан
Стаж:
3 месяца 6 дней
Сообщений:
432

Валерий Головко. Саундтрек длиною в жизнь
Год выпуска: 2012
Страна: Республика Беларусь
Жанр: Биографии замечательных людей
Продолжительность: 00:50:35
Перевод: Не требуется
Режиссер: Юрий Ярошик
Описание: Документальный фильм о белорусском композиторе.
В основе картины - неизвестные факты, о которых герой откровенно расскажет впервые.
Криминальное детство в Гомеле и ранняя смерть отца, поступление в самый престижный музыкальный вуз Ленинграда, появление в составе "Песняров", три клинические смерти, создание и крах большого бизнеса в начале 90-х, единственная настоящая любовьи гибель супруги в ДТП, работа с режиссерами Голливуда, появление песни "Мама" (в исполнении Натальи Подольской), эмиграция в США, возвращение в Беларусь и авторский концерт с Президентским оркестром в 2005 году, новая супруга, которая более чем на 30 лет младше, - все это об одном человеке, которого коллеги и друзья называют музыкальным гением.
Среди экспертов телефильма, который выйдет на "Беларусь 1", - друзья Батыр Шукенов (основатель группы "А-студио"), Наталья Подольская, Валерий Дайнеко, а также все те люди, с которыми рос и работал в разные годы известный композитор Валерий Головко.
Доп. информация: Запись потока *.ts с наземного цифрового телеканала "Беларусь 3".
Благодарность: за помощь с недостающим материалом Bartimeyse и PavelDAS. Обоим большое спасибо!
Подобные раздачи:
Авторский концерт Валерия Головко - Три Ивана (2005)
http://cybertorrent.ru/viewtopic.php?t=5492334
Авторский концерт Валерия Головко - Победа / Исповедь / Одиночество (2015)
http://cybertorrent.ru/viewtopic.php?t=5013308
Мои раздачи:

Мои раздачи

Все
http://cybertorrent.ru/tracker.php?rid=9778909
http://by.rutracker.org/forum/tracker.php?rid=9778909
http://ua.rutracker.org/forum/tracker.php?rid=9778909
Избранные:
1) Я - гражданин Республики Беларусь. Архитектурные и художественные шедевры Беларуси [2008, RUS]
http://cybertorrent.ru/viewtopic.php?t=3516744
2) Государственная политика [Документальный цикл, TVRip, 2010]
http://cybertorrent.ru/viewtopic.php?t=3321565
3) Беларусь. Взгляд извне [2005, документальный сериал, TVRip]
http://cybertorrent.ru/viewtopic.php?t=3543820
4) Трилогия: Белая Русь, Чарующая Беларусь, Путешествие из Беларуси в Россию [2010-2011 г., Документальный, DVD5]
http://cybertorrent.ru/viewtopic.php?t=3442053
5) Правда о западной «демократии» и белорусском «тоталитаризме» [Беларусь 2011, Документальное расследование]
http://cybertorrent.ru/viewtopic.php?t=3523672
6) Задорнов в Беларуси. Беларусь - это значительно улучшенный Советский Союз [2010-2011 г., Интервью, TVRip]
http://cybertorrent.ru/viewtopic.php?t=3512134
7) [Журнал] Экономика Беларуси (16 номеров) [2007-2010, PDF, RUS]
http://cybertorrent.ru/viewtopic.php?t=3309120
8) Армия - Журнал Вооруженных сил республики Беларусь. (81 номер) [1996-2010, PDF, RUS]
http://cybertorrent.ru/viewtopic.php?t=3277264
9) Страна Моя, Беларусь! Заставка телеканал СТВ Минск. Белоруссия, Мир, Несвиж и др. zweizwei [2010, рекламный ролик, заставка, HD-Video]
http://cybertorrent.ru/viewtopic.php?t=3480687
10) Радзивиллы Несвижские владения Костел Божьего тела [2011 г., хроникально-документальный, TVRip]
http://cybertorrent.ru/viewtopic.php?t=3410980
11) Полёты на воздушном шаре. Новогрудок. Беларусь. zweizwei / Belarus Novogrudok [2010, HD-Video]
http://cybertorrent.ru/viewtopic.php?t=3380821
12) Полёты на воздушном шаре / Беларусь, Белоруссия, Гродно, Святск. zweizwei [2009, HD-Video]
http://cybertorrent.ru/viewtopic.php?t=3380756
13) Вид Гродно с высоты полета (Беларусь)/Выгляд Гродна з вышыні палёту паветранага шара [222]
http://cybertorrent.ru/viewtopic.php?t=3369388
14) Анархия Прямое действие. Беларусь [2011, документальный фильм, TVRip]
http://cybertorrent.ru/viewtopic.php?t=3485756
15) Психология девиации (АТН, Беларусь ТВ) [2010, Информационно-аналитические и общественно-политическиепередачи, TVRip]
http://cybertorrent.ru/viewtopic.php?t=3542424
16) Боль моя - Чернобыль (Беларусь, Коллектив Беларусь ТВ) [2011, Документлный, TVRip]
http://cybertorrent.ru/viewtopic.php?t=3546253
17) Попов хутор и его обитатели Русс ТВ [2011, Документальный, DVD5]
http://cybertorrent.ru/viewtopic.php?t=3514286
и сотни других...
Качество: DVB
Контейнер: TS
Видео кодек: H.264
Аудио кодек: MP2
Видео: MPEG4 Video (H264) 720(785)x576 (49:36) 25fps, 2 255 kb/s
Аудио: MPEG Audio 48000Hz stereo 256kbps
Сэмпл: https://www.sendspace.com/file/bu785y

MediaInfo

General
ID : 1 (0x1)
Complete name : D:\Новая земля 2\001 Документальный фильмы\Личности\Валерий Головко. Саундтрек длиною в жизнь (2012)\Валерий Головко. Саундтрек длиною в жизнь (2012).ts
Format : MPEG-TS
File size : 956 MiB
Duration : 50 min
Overall bit rate mode : Variable
Overall bit rate : 2 644 kb/s
Video
ID : 801 (0x321)
Menu ID : 1 (0x1)
Format : AVC
Format/Info : Advanced Video Codec
Format profile : Main@L3
Format settings, CABAC : Yes
Format settings, ReFrames : 4 frames
Format settings, GOP : M=4, N=24
Codec ID : 27
Duration : 50 min
Bit rate : 2 255 kb/s
Width : 720 pixels
Height : 576 pixels
Display aspect ratio : 4:3
Frame rate : 25.000 FPS
Standard : PAL
Color space : YUV
Chroma subsampling : 4:2:0
Bit depth : 8 bits
Scan type : MBAFF
Scan type, store method : Separated fields
Scan order : Top Field First
Bits/(Pixel*Frame) : 0.217
Stream size : 816 MiB (85%)
Color range : Limited
Color primaries : BT.601 PAL
Transfer characteristics : BT.470 System B, BT.470 System G
Matrix coefficients : BT.601
Audio
ID : 802 (0x322)
Menu ID : 1 (0x1)
Format : MPEG Audio
Format version : Version 1
Format profile : Layer 2
Codec ID : 3
Duration : 50 min
Bit rate mode : Constant
Bit rate : 256 kb/s
Channel(s) : 2 channels
Sampling rate : 48.0 kHz
Compression mode : Lossy
Stream size : 92.6 MiB (10%)
Language : English
[cybertorrent.ru].t3997.torrent 
Торрент: Зарегистрирован [ 2018-02-17 01:52 ] · 2EC0330DC27CED2F26A27518E6E7387548B818FC

Скачать .torrent

Скачать

19 KB

Статус: проверено
Скачан: 0 раз
Размер: 956 MB
Профиль [ЛС]
Показать сообщения:    

Текущее время: 21-Май 16:36

Часовой пояс: UTC ± 0



Вы не можете начинать темы
Вы не можете отвечать на сообщения
Вы не можете редактировать свои сообщения
Вы не можете удалять свои сообщения
Вы не можете голосовать в опросах
Вы не можете прикреплять файлы к сообщениям
Вы можете скачивать файлы