Статистика раздачи
Размер:  458 MB   |    Зарегистрирован:  3 месяца 3 дня   |    Скачан:  0 раз

Полного источника не было: Никогда

Личеров:  1  [  0 KB/s  ]  
 
   
 
 

Ласточка ®

Пол:
Не указан
Стаж:
3 месяца 5 дней
Сообщений:
264

Пути Господни. Земная ноша Серафима
Дата/Год выпуска: 2008
Страна: Россия
Жанр: торжество Православия
Продолжительность: 00:25:58
Перевод: Не требуется
Русские субтитры: нет
Оригинальная аудиодорожка: русский
Режиссер: Борис Конухов
Телеканал: СПАС
Описание: Цикл документальных фильмов Пути Господни, рассказывающих о жизни известных и чтимых РПЦ людей, об их подвигах и тяжёлых испытаниях. Данный фильм о священномученике Серафиме Чичагове.
качество: TVRip
формат: AVI
Видео: MPEG4, XviD, 720x544 (4:3), 25.000 fps, 2 324 Kbps (0.237 bit/pixel)
Аудио: MP3, 44.1 KHz, 2 ch, 128 Kbps, CBR

MediaInfo

General
Complete name : C:\Users\User\Downloads\Пути Господни. Земная ноша Серафима.avi
Format : AVI
Format/Info : Audio Video Interleave
File size : 458 MiB
Duration : 25mn 58s
Overall bit rate : 2 464 Kbps
Video
ID : 1
Format : MPEG-4 Visual
Format profile : Simple@L3
Format settings, BVOP : 2
Format settings, QPel : No
Format settings, GMC : No warppoints
Format settings, Matrix : Default (H.263)
Codec ID : XVID
Codec ID/Hint : XviD
Duration : 25mn 58s
Bit rate : 2 323 Kbps
Width : 720 pixels
Height : 544 pixels
Display aspect ratio : 4:3
Frame rate : 25.000 fps
Color space : YUV
Chroma subsampling : 4:2:0
Bit depth : 8 bits
Scan type : Progressive
Compression mode : Lossy
Bits/(Pixel*Frame) : 0.237
Stream size : 432 MiB (94%)
Writing library : XviD 1.1.0 Beta2 (UTC 2005-04-04)
Audio
ID : 0
Format : MPEG Audio
Format version : Version 1
Format profile : Layer 3
Mode : Dual mono
Codec ID : 55
Codec ID/Hint : MP3
Duration : 25mn 58s
Bit rate mode : Constant
Bit rate : 128 Kbps
Channel(s) : 2 channels
Sampling rate : 44.1 KHz
Compression mode : Lossy
Delay relative to video : 26ms
Stream size : 23.8 MiB (5%)
Alignment : Split accross interleaves
Interleave, duration : 40 ms (1.00 video frame)
Writing library : LAME3.93

Скриншоты

[cybertorrent.ru].t4114.torrent 
Торрент: Зарегистрирован [ 2018-02-17 01:52 ] · DE43F205A86774E40D61678EF8968CC7BEE2E135

Скачать .torrent

Скачать

18 KB

Статус: проверено
Скачан: 0 раз
Размер: 458 MB
Профиль [ЛС]
Показать сообщения:    

Текущее время: 20-Май 23:33

Часовой пояс: UTC ± 0



Вы не можете начинать темы
Вы не можете отвечать на сообщения
Вы не можете редактировать свои сообщения
Вы не можете удалять свои сообщения
Вы не можете голосовать в опросах
Вы не можете прикреплять файлы к сообщениям
Вы можете скачивать файлы