Статистика раздачи
Размер:  752 MB   |    Зарегистрирован:  3 месяца 3 дня   |    Скачан:  0 раз

Полного источника не было: Никогда

 
   
 
 

torrents24.pl ®

Пол:
Не указан
Стаж:
3 месяца 5 дней
Сообщений:
231

Игра в убийство / The Murder Game
Страна: США
Студия: 500 Pieces Films
Жанр: ужасы, слэшер
Год выпуска: 2006
Продолжительность: 01:25:57-Перевод: Авторский (одноголосый закадровый) Евгений Гранкин
Субтитры: нет
Оригинальная аудиодорожка: нет-Режиссер: Роберт Харари / Robert Harari-В ролях: Стив Политс, Кэти Серк, Сэмюэл Клейн, Ариана Алмаджан, Винс Юстас, Макс Хэмблетон, Роберт Харари, Кристина Маршан, Джулия Пикенс, Шерил Сканджио, Эрик Соуллиард, Джей Р. Стайн III, Джэйсон Вэнс, Чи Ян-Описание: Группа подростков затевает странную игру, в которой одного из них тайно выбирают на роль "убийцы", в то время как остальные остаются невинными жертвами. Убийца должен "уничтожить" остальных, прежде чем его смогут отыскать. Это игра! Но игроки начинают умирать один за другим от рук неизвестного маньяка...-Сэмпл: http://sendfile.su/1387430-Качество видео: DVDRip
Формат видео: AVI
Видео: 720x384 (1.88:1), 25 fps, XviD MPEG4 ~1085 kbps avg, 0,16 bits/(pixel*frame)
Аудио: MP3, 48 kHz, 2 ch, 128 kbps avg

MediaInfo

General
Complete name : F:\FILM\TORRENT\The Murder Game (2006).avi
Format : AVI
Format/Info : Audio Video Interleave
File size : 752 MiB
Duration : 1 h 25 min
Overall bit rate : 1 223 kb/s
Writing application : VirtualDubMod 1.5.10.2 (build 2542/release)
Writing library : VirtualDubMod build 2542/release
Video
ID : 0
Format : MPEG-4 Visual
Format profile : Advanced Simple@L5
Format settings, BVOP : 1
Format settings, QPel : No
Format settings, GMC : No warppoints
Format settings, Matrix : Custom
Codec ID : XVID
Codec ID/Hint : XviD
Duration : 1 h 25 min
Bit rate : 1 085 kb/s
Width : 720 pixels
Height : 384 pixels
Display aspect ratio : 1.85:1
Frame rate : 25.000 FPS
Color space : YUV
Chroma subsampling : 4:2:0
Bit depth : 8 bits
Scan type : Progressive
Compression mode : Lossy
Bits/(Pixel*Frame) : 0.157
Stream size : 667 MiB (89%)
Writing library : XviD 73
Audio
ID : 1
Format : MPEG Audio
Format version : Version 1
Format profile : Layer 3
Mode : Joint stereo
Mode extension : MS Stereo
Codec ID : 55
Codec ID/Hint : MP3
Duration : 1 h 25 min
Bit rate mode : Constant
Bit rate : 128 kb/s
Channel(s) : 2 channels
Sampling rate : 48.0 kHz
Compression mode : Lossy
Stream size : 78.7 MiB (10%)
Alignment : Aligned on interleaves
Interleave, duration : 40 ms (1.00 video frame)
Interleave, preload duration : 504 ms
Writing library : LAME3.99r
Encoding settings : -m j -V 4 -q 3 -lowpass 17 -b 128

Скриншот c названием фильма

Скриншоты

[cybertorrent.ru].t4155.torrent 
Торрент: Зарегистрирован [ 2018-02-17 01:52 ] · 68C1BFDD40BABAB030E52E0A22DE43FD683FFA52

Скачать .torrent

Скачать

15 KB

Статус: проверено
Скачан: 0 раз
Размер: 752 MB
Профиль [ЛС]
Показать сообщения:    

Текущее время: 20-Май 23:35

Часовой пояс: UTC ± 0



Вы не можете начинать темы
Вы не можете отвечать на сообщения
Вы не можете редактировать свои сообщения
Вы не можете удалять свои сообщения
Вы не можете голосовать в опросах
Вы не можете прикреплять файлы к сообщениям
Вы можете скачивать файлы