Статистика раздачи
Размер:  68 MB   |    Зарегистрирован:  3 месяца 3 дня   |    Скачан:  0 раз

Полного источника не было: Никогда

 
   
 
 

ZOOMer ®

Пол:
Не указан
Стаж:
3 месяца 5 дней
Сообщений:
123

Собака Большого Взрыва / Big Bang Dog
Страна: Аргентина
Жанр: авторская анимация
Год выпуска: 2014
Продолжительность: 00:03:45
Перевод: не требуется
Субтитры: нет
Режиссёры: Матиас Виглиано, Данте Забалла / Matias Vigliano, Dante Zaballa
Описание: Абстрактная фантазия на тему параллельного собачьего мира.
Доп. информация: С наступающим Годом Собаки!
Качество видео: WEBRip
Формат видео: AVI
Видео: 2366 kbps, 720х400 (16:9), 24.000 fps, MPEG-4 Visual (XviD)
Аудио: 160 kbps, 48.0 kHz, 2 channels, MPEG Audio (MP3)

MediaInfo

General
Complete name : Big Bang Dog (2014).avi
Format : AVI
Format/Info : Audio Video Interleave
File size : 68.1 MiB
Duration : 3mn 45s
Overall bit rate : 2 536 Kbps
Writing application : Lavf55.33.100
Video
ID : 0
Format : MPEG-4 Visual
Format profile : Advanced Simple@L5
Format settings, BVOP : No
Format settings, QPel : No
Format settings, GMC : No warppoints
Format settings, Matrix : Default (H.263)
Codec ID : XVID
Codec ID/Hint : XviD
Duration : 3mn 45s
Bit rate : 2 366 Kbps
Width : 720 pixels
Height : 400 pixels
Display aspect ratio : 16:9
Frame rate : 24.000 fps
Color space : YUV
Chroma subsampling : 4:2:0
Bit depth : 8 bits
Scan type : Progressive
Compression mode : Lossy
Bits/(Pixel*Frame) : 0.342
Stream size : 63.5 MiB (93%)
Writing library : XviD 64
Audio
ID : 1
Format : MPEG Audio
Format version : Version 1
Format profile : Layer 3
Codec ID : 55
Codec ID/Hint : MP3
Duration : 3mn 45s
Bit rate mode : Constant
Bit rate : 160 Kbps
Channel(s) : 2 channels
Sampling rate : 48.0 KHz
Compression mode : Lossy
Stream size : 4.30 MiB (6%)
Alignment : Aligned on interleaves
Interleave, duration : 24 ms (0.58 video frame)
Interleave, preload duration : 24 ms

Скриншот c названием фильма

Скриншоты

[cybertorrent.ru].t4169.torrent 
Торрент: Зарегистрирован [ 2018-02-17 01:52 ] · B4E0443EF293855479A3C1A12C373F524CCC5D6D

Скачать .torrent

Скачать

11 KB

Статус: проверено
Скачан: 0 раз
Размер: 68 MB
Профиль [ЛС]
Показать сообщения:    

Текущее время: 20-Май 23:34

Часовой пояс: UTC ± 0



Вы не можете начинать темы
Вы не можете отвечать на сообщения
Вы не можете редактировать свои сообщения
Вы не можете удалять свои сообщения
Вы не можете голосовать в опросах
Вы не можете прикреплять файлы к сообщениям
Вы можете скачивать файлы