Статистика раздачи
Размер:  7,83 GB   |    Зарегистрирован:  3 месяца 3 дня   |    Скачан:  0 раз

Полного источника не было: Никогда

Личеров:  5  [  0 KB/s  ]  
 
   
 
 

Gomer ®

Пол:
Не указан
Стаж:
3 месяца 5 дней
Сообщений:
471

Вечернее шоу "Здесь и сейчас"
за январь 2018 года
-1 февраля в 07:28 добавлен выпуск за 31 января,перекачайте торрент-файл, пожалуйста-Год выпуска: 2018
Страна: Россия
Жанр: информационная программа, ток-шоу
Ведущие: Анна Монгайт, Павел Лобков, Максим Товкайло, Антон Желнов, Татьяна Арно, Михаил Фишман
Язык: русский
-Описание:
Главное новостное шоу дня, которое было запущено на самом старте телеканала. За прошедшее время было опробовано множество форматов и вариантов итогового новостного шоу, но главная особенность осталась прежней. Мы отбираем главные новости за день и приглашаем экспертов в студию, с которыми обсуждаем все, что произошло, и каковы могут быть последствия.
Выход в эфир: На телеканале "Дождь" с понедельника по пятницу в 20.00.
Доп. информация: Время в списке выпусков указано московское.-

Содержание релиза

1. 2 января 2018 года (20:00).
2. 3 января 2018 года (20:00).
3. 4 января 2018 года (20:00).
4. 5 января 2018 года (20:00).
5. 8 января 2018 года (20:00).
6. 9 января 2018 года (20:00).
7. 10 января 2018 года (20:00).
8. 11 января 2018 года (20:00).
9. 12 января 2018 года (20:00). И так далее.
10. 15 января 2018 года (20:00).
11. 16 января 2018 года (20:00).
12. 17 января 2018 года (20:00).
13. 18 января 2018 года (20:00).
14. 19 января 2018 года (20:00). И так далее.
15. 22 января 2018 года (20:00).
16. 23 января 2018 года (20:00).
17. 24 января 2018 года (20:00).
18. 25 января 2018 года (20:00).
19. 26 января 2018 года (20:00). И так далее.
20. 29 января 2018 года (20:00).
21. 30 января 2018 года (20:00).
22. 31 января 2018 года (20:00).
-Качество: SATRip
Формат: AVI
Видео кодек: XviD _ Аудио кодек: MP3
Видео: Xvid 720x400 (16:9) ~896kbps 25fps
Аудио: MP3 128kbps 48kHz 1ch
-

MediaInfo

General
Complete name : F:\Мои раздачи\Новости\2018\Здесь и сейчас\Здесь и сейчас. Январь 2018\[2018-01-02 20-00] Здесь и сейчас.avi
Format : AVI
Format/Info : Audio Video Interleave
File size : 170 MiB
Duration : 23 min 3 s
Overall bit rate : 1 032 kb/s
Video
ID : 0
Format : MPEG-4 Visual
Format profile : Advanced Simple@L5
Format settings, BVOP : 2
Format settings, QPel : No
Format settings, GMC : No warppoints
Format settings, Matrix : Default (H.263)
Codec ID : XVID
Codec ID/Hint : XviD
Duration : 23 min 3 s
Bit rate : 895 kb/s
Width : 720 pixels
Height : 400 pixels
Display aspect ratio : 16:9
Frame rate : 25.000 FPS
Color space : YUV
Chroma subsampling : 4:2:0
Bit depth : 8 bits
Scan type : Progressive
Compression mode : Lossy
Bits/(Pixel*Frame) : 0.124
Stream size : 148 MiB (87%)
Writing library : XviD 73
Audio
ID : 1
Format : MPEG Audio
Format version : Version 1
Format profile : Layer 3
Codec ID : 55
Codec ID/Hint : MP3
Duration : 23 min 3 s
Bit rate mode : Constant
Bit rate : 128 kb/s
Channel(s) : 1 channel
Sampling rate : 48.0 kHz
Compression mode : Lossy
Stream size : 21.1 MiB (12%)
Alignment : Split accross interleaves
Interleave, duration : 40 ms (1.00 video frame)
Interleave, preload duratio : 500 ms

Скриншоты

Внимание! Раздача ведётся путём добавления новых выпусков

Внимание! Раздача ведётся путём добавления новых выпусков; при каждом добавлении создаётся новый торрент. Чтобы начать докачку нового выпуска, пользователям необходимо сделать следующее:
(1) остановить скачивание,
(2) удалить старый торрент у себя из клиента (старые серии удалять не надо),
(3) скачать новый торрент и запустить его у себя в клиенте вместо старого, при этом указать клиенту путь в старую папку куда и должно происходить скачивание новых выпусков.
Ваш клиент при этом должен произвести хеширование (проверку) старой папки (если не производит сам - помогите ему сделать это). В результате он будет докачивать только те выпуски, которых у Вас ещё нет. Старые выпуски при этом не удаляются, а продолжают раздаваться!
Eсли Вы уже удалили старые выпуски, то предотвратить их повторную закачку можно, сняв галочки в соответствующих местах при запуске нового торрента. По возможности, желательно не удалять старые выпуски как можно дольше, чтобы релизёр не только продолжал раздавать старые выпуски, но и смог сконцентрироваться на новых.
[cybertorrent.ru].t4258.torrent 
Торрент: Зарегистрирован [ 2018-02-17 01:52 ] · 82A9701174DD32C4E749AA14EACEE0B56BD100FF

Скачать .torrent

Скачать

22 KB

Статус: проверено
Скачан: 0 раз
Размер: 7,83 GB
Профиль [ЛС]
Показать сообщения:    

Текущее время: 20-Май 23:37

Часовой пояс: UTC ± 0



Вы не можете начинать темы
Вы не можете отвечать на сообщения
Вы не можете редактировать свои сообщения
Вы не можете удалять свои сообщения
Вы не можете голосовать в опросах
Вы не можете прикреплять файлы к сообщениям
Вы можете скачивать файлы