Статистика раздачи
Размер:  2,38 GB   |    Зарегистрирован:  3 месяца 5 дней   |    Скачан:  0 раз
Сидов:  22  [  0 KB/s  ]   Личеров:  1  [  0 KB/s  ]  
 
   
 
 

lopster ®

Пол:
Не указан
Стаж:
3 месяца 5 дней
Сообщений:
612

Кухня. Последняя битва / Open Matte
Жанр: комедия
Год выпуска: 2017
Продолжительность: 01:44:58
Режиссёр: Антон Федотов
В ролях: Дмитрий Назаров, Дмитрий Нагиев, Сергей Лавыгин, Олег Табаков, Анфиса Черных, Кирилл Ковбас, Сергей Епишев, Михаил Тарабукин, Никита Тарасов, Михаил Башкатов
Описание: Раньше Ивана интересовали только шифровальные коды и хакерские программы, но всё меняется, когда он встречает красотку-француженку Анну со взрывным характером и русскими корнями. Оба летят в Сочи, чтобы принять участие в Чемпионате мира среди поваров: она выступает за Францию, а он — за Россию. Но Ивану ещё нужно разобраться в отношениях с недавно возникшим в его жизни папой — знаменитым шеф-поваром Виктором Бариновым, заслужить доверие его кулинарной суперкоманды, избежать тюрьмы за взлом сайта Минобороны и… помочь телеведущему Дмитрию Нагиеву сбежать из горного села в Абхазии, где его заставляют жениться.
Доп. информация:
Запись от - GambitX
Сэмпл: http://multi-up.com/1178500
Качество видео: DVB
Формат видео: MKV
Видео: 720x576@786x576 (4:3), 25 fps, AVC ~2994 kbps, 0.28 bit/pixel
Аудио: 48 kHz, MPEG Audio Layer 2, 2/0 (L,R) ch, ~256 kbps

MediaInfo

Complete name : Кухня.Последняя.битва.2017.Open.Matte.DVB.mkv
Format : Matroska
Format version : Version 4 / Version 2
File size : 2.38 GiB
Duration : 1 h 44 min
Overall bit rate : 3 252 kb/s
Encoded date : UTC 2017-11-27 13:34:13
Writing application : mkvmerge v8.2.0 ('World of Adventure') 32bit
Writing library : libebml v1.3.1 + libmatroska v1.4.2
Video
ID : 1
Format : AVC
Format/Info : Advanced Video Codec
Format profile : High@L3
Format settings : CABAC / 3 Ref Frames
Format settings, CABAC : Yes
Format settings, ReFrames : 3 frames
Format settings, picture st : Frame
Codec ID : V_MPEG4/ISO/AVC
Duration : 1 h 44 min
Bit rate : 2 994 kb/s
Width : 720 pixels
Height : 576 pixels
Display aspect ratio : 4:3
Original display aspect rat : 4:3
Frame rate mode : Constant
Frame rate : 25.000 FPS
Standard : Component
Color space : YUV
Chroma subsampling : 4:2:0
Bit depth : 8 bits
Scan type : Interlaced
Scan type, store method : Interleaved fields
Scan order : Top Field First
Bits/(Pixel*Frame) : 0.289
Stream size : 2.20 GiB (92%)
Default : No
Forced : No
Color range : Limited
Color primaries : BT.601 PAL
Transfer characteristics : BT.470 System B, BT.470 System G
Matrix coefficients : BT.470 System B, BT.470 System G
Audio
ID : 2
Format : MPEG Audio
Format version : Version 1
Format profile : Layer 2
Codec ID : A_MPEG/L2
Codec ID/Hint : MP2
Duration : 1 h 44 min
Bit rate mode : Constant
Bit rate : 256 kb/s
Channel(s) : 2 channels
Sampling rate : 48.0 kHz
Frame rate : 41.665 FPS (1152 SPF)
Compression mode : Lossy
Stream size : 192 MiB (8%)
Default : Yes
Forced : No

Скриншот c названием фильма

Скриншоты

[cybertorrent.ru].t453.torrent 
Торрент: Зарегистрирован [ 2018-02-15 15:48 ] · 8EDEF042A462BF37257E171E0031957FDBF9202C

Скачать .torrent

Скачать

24 KB

Статус: проверено
Скачан: 0 раз
Размер: 2,38 GB
Профиль [ЛС]
Показать сообщения:    

Текущее время: 20-Май 23:38

Часовой пояс: UTC ± 0



Вы не можете начинать темы
Вы не можете отвечать на сообщения
Вы не можете редактировать свои сообщения
Вы не можете удалять свои сообщения
Вы не можете голосовать в опросах
Вы не можете прикреплять файлы к сообщениям
Вы можете скачивать файлы