Статистика раздачи
Размер:  1,46 GB   |    Зарегистрирован:  3 месяца 6 дней   |    Скачан:  0 раз

Полного источника не было: Никогда

 
   
 
 

lopster ®

Пол:
Не указан
Стаж:
3 месяца 6 дней
Сообщений:
612

Ёлки лохматые- Год выпуска: 2014
Страна: Россия
Студия: Bazelevs
Жанр: семейный, комедия-Продолжительность: 01:25:49-Режиссёр: Максим Свешников
В ролях: Андрей Мерзликин, Ян Цапник, Лера Стреляева, Галина Коньшина, Фемме Фатале, Айса Энимал Арт, Пётр Фёдоров, Анна Чиповская, Виктор Васильев, Андрей Федорцов и др.-Описание: Хозяйка Пирата и Йоко — самарская девочка Настя — улетает с бабушкой в Питер, оставляя питомцев в отеле для собак. Расценив это как предательство, животные сбегают домой, где можно наконец почувствовать себя человеком — есть сколько угодно, играть без устали и спать на хозяйской кровати. Но райский отдых влюбленных прерывают два незадачливых воришки, которых ждет нечеловеческий прием…-КиноПоиск | IMDb | Sample-Качество: BDRip-AVC (Источник: Blu-Ray Disc 1080p)
Формат: MKV
Видео: x264, 1152x482 (2.40:1), 24.000 fps, ~1989 kbps avg, 0.149 bit/pixel
Аудио: Русский 48.0 KHz, AC3, 3/2 (L,C,R,l,r) + LFE ch, ~448.00 kbps avg-

Релиз


Рип - whip93.

Сравнение скриншотов

Source vs. Encode

MediaInfo | x264 log

x264 log

---[Information] [31.12.2017 13:07:10] raw [info]: 1152x482p 1:1 @ 1249991/52083 fps (cfr)
---[Information] [31.12.2017 13:07:10] x264 [info]: using SAR=1/1
---[Information] [31.12.2017 13:07:10] x264 [info]: using cpu capabilities: MMX2 SSE2Fast SSSE3 SSE4.2 AVX
---[Information] [31.12.2017 13:07:10] x264 [info]: profile High, level 4.1
---[Information] [31.12.2017 16:58:26] x264 [info]: frame I:1083 Avg QP:16.12 size: 80513
---[Information] [31.12.2017 16:58:26] x264 [info]: frame P:33024 Avg QP:19.85 size: 19899
---[Information] [31.12.2017 16:58:26] x264 [info]: frame B:89479 Avg QP:22.30 size: 5951
---[Information] [31.12.2017 16:58:26] x264 [info]: consecutive B-frames: 4.5% 5.3% 13.9% 31.5% 17.9% 23.2% 2.1% 0.5% 0.4% 0.1% 0.1% 0.1% 0.1% 0.0% 0.2%
---[Information] [31.12.2017 16:58:26] x264 [info]: mb I I16..4: 10.1% 62.5% 27.5%
---[Information] [31.12.2017 16:58:26] x264 [info]: mb P I16..4: 3.2% 14.4% 2.7% P16..4: 41.2% 19.8% 5.8% 1.8% 0.3% skip:10.7%
---[Information] [31.12.2017 16:58:26] x264 [info]: mb B I16..4: 0.5% 2.0% 0.4% B16..8: 31.6% 12.5% 1.9% direct: 3.5% skip:47.6% L0:41.3% L1:45.2% BI:13.5%
---[Information] [31.12.2017 16:58:26] x264 [info]: 8x8 transform intra:69.9% inter:67.1%
---[Information] [31.12.2017 16:58:26] x264 [info]: coded y,uvDC,uvAC intra: 65.2% 69.8% 37.0% inter: 15.5% 16.0% 2.8%
---[Information] [31.12.2017 16:58:26] x264 [info]: i16 v,h,dc,p: 27% 16% 4% 52%
---[Information] [31.12.2017 16:58:26] x264 [info]: i8 v,h,dc,ddl,ddr,vr,hd,vl,hu: 15% 9% 10% 8% 11% 12% 12% 11% 13%
---[Information] [31.12.2017 16:58:26] x264 [info]: i4 v,h,dc,ddl,ddr,vr,hd,vl,hu: 30% 9% 8% 6% 10% 10% 9% 8% 9%
---[Information] [31.12.2017 16:58:26] x264 [info]: i8c dc,h,v,p: 26% 30% 24% 20%
---[Information] [31.12.2017 16:58:26] x264 [info]: Weighted P-Frames: Y:3.3% UV:1.9%
---[Information] [31.12.2017 16:58:26] x264 [info]: ref P L0: 53.3% 6.3% 15.9% 6.1% 4.8% 3.5% 3.0% 1.7% 1.6% 1.3% 1.3% 1.2% 0.1% 0.0%
---[Information] [31.12.2017 16:58:26] x264 [info]: ref B L0: 78.5% 9.7% 4.3% 2.1% 1.5% 1.2% 1.0% 0.6% 0.5% 0.4% 0.2%
---[Information] [31.12.2017 16:58:26] x264 [info]: ref B L1: 95.6% 4.4%
---[Information] [31.12.2017 16:58:26] x264 [info]: kb/s:1983.72
---[Information] [31.12.2017 16:58:26] encoded 123586 frames, 8.91 fps, 1983.72 kb/s
General
Unique ID : 39853039252576751102680268140451291207 (0x1DFB6A89EDF64B0E66C3846228D56047)
Complete name : F:\Ёлки.лохматые.2014.BDRip.DD5.1.x264.-whip93.mkv
Format : Matroska
Format version : Version 4 / Version 2
File size : 1.46 GiB
Duration : 1h 25mn
Overall bit rate : 2 433 Kbps
Movie name : Ёлки лохматые (2014) - Release by whip93
Encoded date : UTC 2017-12-31 15:02:42
Writing application : mkvmerge v19.0.0 ('Brave Captain') 64-bit
Writing library : libebml v1.3.5 + libmatroska v1.4.8
DURATION : 01:25:49.728000000
NUMBER_OF_FRAMES : 160929
NUMBER_OF_BYTES : 288384768
_STATISTICS_WRITING_APP : mkvmerge v19.0.0 ('Brave Captain') 64-bit
_STATISTICS_WRITING_DATE_UT : 2017-12-31 15:02:42
_STATISTICS_TAGS : BPS DURATION NUMBER_OF_FRAMES NUMBER_OF_BYTES
Video
ID : 1
Format : AVC
Format/Info : Advanced Video Codec
Format profile : High@L4.1
Format settings, CABAC : Yes
Format settings, ReFrames : 12 frames
Codec ID : V_MPEG4/ISO/AVC
Duration : 1h 25mn
Bit rate : 1 989 Kbps
Width : 1 152 pixels
Height : 482 pixels
Display aspect ratio : 2.40:1
Frame rate mode : Constant
Frame rate : 24.000 fps
Color space : YUV
Chroma subsampling : 4:2:0
Bit depth : 8 bits
Scan type : Progressive
Bits/(Pixel*Frame) : 0.149
Stream size : 1.16 GiB (80%)
Title : Encoded by whip93
Writing library : x264 core 152 r2851 ba24899
Encoding settings : cabac=1 / ref=12 / deblock=1:-3:-3 / analyse=0x3:0x133 / me=umh / subme=11 / psy=1 / psy_rd=1.00:0.08 / mixed_ref=0 / me_range=64 / chroma_me=1 / trellis=2 / 8x8dct=1 / cqm=0 / deadzone=21,11 / fast_pskip=0 / chroma_qp_offset=-1 / threads=12 / lookahead_threads=3 / sliced_threads=0 / nr=0 / decimate=1 / interlaced=0 / bluray_compat=0 / constrained_intra=0 / bframes=14 / b_pyramid=2 / b_adapt=2 / b_bias=0 / direct=1 / weightb=1 / open_gop=0 / weightp=2 / keyint=240 / keyint_min=23 / scenecut=40 / intra_refresh=0 / rc_lookahead=90 / rc=2pass / mbtree=1 / bitrate=1989 / ratetol=1.0 / qcomp=0.72 / qpmin=0 / qpmax=69 / qpstep=4 / cplxblur=20.0 / qblur=0.5 / vbv_maxrate=50000 / vbv_bufsize=62500 / nal_hrd=none / filler=0 / ip_ratio=1.40 / aq=1:0.80
Language : Russian
Default : Yes
Forced : No
Color range : Limited
Color primaries : BT.709
Transfer characteristics : BT.709
Matrix coefficients : BT.709
Audio
ID : 2
Format : AC-3
Format/Info : Audio Coding 3
Mode extension : CM (complete main)
Format settings, Endianness : Big
Codec ID : A_AC3
Duration : 1h 25mn
Bit rate mode : Constant
Bit rate : 448 Kbps
Channel(s) : 6 channels
Channel positions : Front: L C R, Side: L R, LFE
Sampling rate : 48.0 KHz
Compression mode : Lossy
Stream size : 275 MiB (18%)
Language : Russian
Default : Yes
Forced : No
Menu
00:00:00.000 : ru:Глава 1
00:06:54.000 : ru:Глава 2
00:12:11.000 : ru:Глава 3
00:17:48.000 : ru:Глава 4
00:22:44.000 : ru:Глава 5
00:26:49.000 : ru:Глава 6
00:33:35.000 : ru:Глава 7
00:40:35.000 : ru:Глава 8
00:48:05.000 : ru:Глава 9
00:57:29.000 : ru:Глава 10
01:05:06.000 : ru:Глава 11
01:11:25.000 : ru:Глава 12

Скриншоты

-
[cybertorrent.ru].t480.torrent 
Торрент: Зарегистрирован [ 2018-02-15 15:48 ] · F9FB31665E748F475D6CC1EB08513E932CF427A3

Скачать .torrent

Скачать

59 KB

Статус: проверено
Скачан: 0 раз
Размер: 1,46 GB
Профиль [ЛС]
Показать сообщения:    

Текущее время: 21-Май 20:34

Часовой пояс: UTC ± 0



Вы не можете начинать темы
Вы не можете отвечать на сообщения
Вы не можете редактировать свои сообщения
Вы не можете удалять свои сообщения
Вы не можете голосовать в опросах
Вы не можете прикреплять файлы к сообщениям
Вы можете скачивать файлы