Статистика раздачи
Размер:  836 MB   |    Зарегистрирован:  3 месяца 11 дней   |    Скачан:  0 раз

Полного источника не было: Никогда

Личеров:  4  [  0 KB/s  ]  
 
   
 
 

Red ®

Пол:
Не указан
Стаж:
3 месяца 11 дней
Сообщений:
245

Comedy Club на Первом (выпуск 3)
Дата/Год выпуска: 07.03.2007
Страна: Россия
Жанр: Юмор
Продолжительность: 01:27:55
Перевод: Не требуется
Русские субтитры: нет
Телеканал: Первый канал

Описание: За свою многотысячелетнюю историю человечество обросло огромным количеством вредных привычек, с которыми мы сегодня будем безжалостно бороться! Это Comedy на Первом от KVNforAll!!
Качество: SATRip
Формат: AVI
Видео: Xvid 512x384 25.006fps
Аудио: MP3 48000Hz stereo 128kbps

Афишка

Александр Ревва
- конфликт (Харламов, Батрутдинов)
Тимур Родригес, Макс Перлов
- "Дорогая моя столица!"
Павел Воля
- сборище оптимистов (Андрей Малахов, Елена Проклова, Ольга Кокорекина, Арина Шарапова, Нелли Уварова, Алена Свиридова и др.)
Сестры Зайцевы
- пробки на дорогах
- репортаж спецкора Романа
Дмитрий Сорокин
- посвящается сотрудникам ППС
- футбольная
- отечественная автолюбительская
- гастарбайтерская
Незлобин
- глупые вопросы
Гарик Мартиросян
- ди-джейский микс (Родригес, Перлов)
Гарик Харламов, Тимур Батрутдинов
- покупка элитного жилья
- спортивный магазин
Таир
- реклама популярных книг
Дуэт им. Чехова
- случай в современном офисе
Гарик Мартиросян, Гарик Харламов
- самая капризная звезда отечественного шоу-бизнеса
Тимур Родригес, Макс Перлов
- какие в Германии фильмы снимают (Коламбия Пикчерз не представляет)
Вадим Галыгин, Гарик Харламов
- раскопки 3 (представлен как "раскопки-2")
Александр Ревва
- на чемпионате мира по бодибилдингу (Харламов, Батрутдинов)
Гарик Мартиросян, Дмитрий Сорокин
- если бы Розенбаум родился в Британии
- если бы RHCP писала саундтреки к советским мультикам
- если бы Эдита Пьеха пела в составе Nirvana
- если бы Стинг солировал в Машине Времени
Гарик Мартиросян
- имена в телефонных книгах мобильников
Практически весь Камеди на Первом
- музыкальный казус

Скриншоты

MediaInfo

General
Format : AVI
Format/Info : Audio Video Interleave
File size : 836 MiB
Duration : 1 h 27 min
Overall bit rate : 1 329 kb/s
Movie name : post.kvn.comedy.club.1kanal.(03).www.kvnforall.info
Director : PiXeL
Writing application : VirtualDubMod 1.5.10.2 (build 2540/release)
Copyright : KVNforAll
Video
ID : 0
Format : MPEG-4 Visual
Codec ID : XVID
Codec ID/Hint : XviD
Duration : 1 h 27 min
Bit rate : 1 191 kb/s
Width : 512 pixels
Height : 384 pixels
Display aspect ratio : 4:3
Frame rate : 25.000 FPS
Color space : YUV
Chroma subsampling : 4:2:0
Compression mode : Lossy
Bits/(Pixel*Frame) : 0.242
Stream size : 749 MiB (90%)
Audio
ID : 1
Format : MPEG Audio
Format version : Version 1
Format profile : Layer 3
Mode : Joint stereo
Codec ID : 55
Codec ID/Hint : MP3
Duration : 1 h 27 min
Bit rate mode : Constant
Bit rate : 128 kb/s
Channel(s) : 2 channels
Sampling rate : 48.0 kHz
Compression mode : Lossy
Stream size : 80.5 MiB (10%)
Alignment : Aligned on interleaves
Interleave, duration : 40 ms (1.00 video frame)
Interleave, preload duration : 504 ms
Writing library : LAME3.97
Рип предоставлен: PiXeL
Афишка: PiXeL
Команда желает вам веселого просмотра!
Все выпуски Comedy Club на Первом
[cybertorrent.ru].t588.torrent 
Торрент: Зарегистрирован [ 2018-02-15 20:34 ] · 7A168404131196333542D8F73109E35D25E72282

Скачать .torrent

Скачать

17 KB

Статус: проверено
Скачан: 0 раз
Размер: 836 MB
Профиль [ЛС]
Показать сообщения:    

Текущее время: 27-Май 05:30

Часовой пояс: UTC ± 0



Вы не можете начинать темы
Вы не можете отвечать на сообщения
Вы не можете редактировать свои сообщения
Вы не можете удалять свои сообщения
Вы не можете голосовать в опросах
Вы не можете прикреплять файлы к сообщениям
Вы можете скачивать файлы