Статистика раздачи
Размер:  3,94 GB   |    Зарегистрирован:  3 месяца 10 дней   |    Скачан:  0 раз

Полного источника не было: Никогда

Личеров:  6  [  0 KB/s  ]  
 
   
 
 

antikvar ®

Пол:
Не указан
Стаж:
3 месяца 10 дней
Сообщений:
294

[Выпуск 1] | [Выпуск 2] | [Выпуск 3] | [Выпуск 4] | [Выпуск 5]-Человек-паук. Выпуск 1. Злодеи атакуют / Spider-Man 1: The Ultimate Villain Showdown
Год выпуска: 1994
Страна: США
Жанр: Мультфильм
Продолжительность: 80мин.
Перевод: Профессиональный (многоголосый, закадровый)
Режиссер: Лэрри Пэдличи
В ролях: Роско Ли Браун, Максвелл Колфилд, Марк Хэмилл, Кэролайн Гудолл, Крис Поттер, Том Кэйн, Мэджел Барретт, Лоис Неттлетон, Имофф Гэри, Росс Нил, Кристофер Дэниел Барнс, Джали Беннетт, Сара Балантине
Описание: Включайтесь в приключения самого удивительного американского супергероя!
Человек-паук побеждает главного противника - Зеленого Гоблина - и еще целую банду своих самых непримиримых врагов! В научной лаборатории паук, случайно оказавшийся под радиоактивным лучом, кусает юного Питера Паркера за руку. Укус насекомого превращает школьника в человекообразного метателя паутины, наделяя его невероятной паучьей силой и звериным чутьём. Узнайте, как началась легенда о Человеке-пауке и Зеленом Гоблине, полюбуйтесь зрелищными битвами с суперзлодеями Амбалом (Кингпином) и Доктором Оком. Эта мультипликационная история окутает вас паутиной незабываемых переживаний!
Доп. информация: Это первый выпуск, всего их 5!
Качество: DVD5
Формат: DVD Video
Видео: Video: PAL 4:3 (720x576) VBR
Аудио: Russian (Dolby AC3, 6 ch), English (Dolby AC3, 6 ch),
Субтитры:Russian

DVDInfo

Код:Title: SPIDERMAN_PART_01
Size: 3.94 Gb ( 4 131 728,00 KBytes ) - DVD-5
Enabled regions: 1, 2, 3, 4, 5, 6, 7, 8
VTS_01 :
Play Length: 00:00:04
Video: PAL 4:3 (720x576) VBR
VTS_02 :
Play Length: 00:00:12
Video: PAL 4:3 (720x576) VBR
Audio:
Not specified (Dolby AC3, 3 ch)
VTS_03 :
Play Length: 01:19:09
Video: PAL 4:3 (720x576) VBR
Audio:
Russian (Dolby AC3, 6 ch)
English (Dolby AC3, 6 ch)
Subtitles:
Russian
* Menus Information *
VIDEO_TS Menu
Video:
PAL 4:3 (720x576) VBR
English Language Unit :
Title Menu
VTS_01 Menu
Video:
PAL 4:3 (720x576) VBR
Audio:
Not specified (Dolby AC3, 2 ch)
English Language Unit :
Root Menu
VTS_02 Menu
Video:
PAL 4:3 (720x576) VBR
English Language Unit :
Root Menu
VTS_03 Menu
Video:
PAL 4:3 (720x576) VBR
English Language Unit :
Root Menu

MediaInfo

Код:General
Complete name : VTS_03_1.VOB
Format : MPEG-PS
File size : 1 024 MiB
Duration : 20mn 45s
Overall bit rate mode : Variable
Overall bit rate : 6 897 Kbps
Video
ID : 224 (0xE0)
Format : MPEG Video
Format version : Version 2
Format profile : Main@Main
Format settings, BVOP : Yes
Format settings, Matrix : Custom
Format settings, GOP : Variable
Duration : 20mn 45s
Bit rate mode : Variable
Bit rate : 5 991 Kbps
Maximum bit rate : 8 500 Kbps
Width : 720 pixels
Height : 576 pixels
Display aspect ratio : 4:3
Frame rate : 25.000 fps
Standard : PAL
Color space : YUV
Chroma subsampling : 4:2:0
Bit depth : 8 bits
Scan type : Interlaced
Scan order : Bottom Field First
Compression mode : Lossy
Bits/(Pixel*Frame) : 0.578
Time code of first frame : 00:00:00:00
Time code source : Group of pictures header
Stream size : 889 MiB (87%)
Audio #1
ID : 189 (0xBD)-128 (0x80)
Format : AC-3
Format/Info : Audio Coding 3
Mode extension : CM (complete main)
Format settings, Endianness : Big
Muxing mode : DVD-Video
Duration : 20mn 44s
Bit rate mode : Constant
Bit rate : 384 Kbps
Channel(s) : 6 channels
Channel positions : Front: L C R, Side: L R, LFE
Sampling rate : 48.0 KHz
Bit depth : 16 bits
Compression mode : Lossy
Stream size : 57.0 MiB (6%)
Audio #2
ID : 189 (0xBD)-129 (0x81)
Format : AC-3
Format/Info : Audio Coding 3
Mode extension : CM (complete main)
Format settings, Endianness : Big
Muxing mode : DVD-Video
Duration : 20mn 44s
Bit rate mode : Constant
Bit rate : 384 Kbps
Channel(s) : 6 channels
Channel positions : Front: L C R, Side: L R, LFE
Sampling rate : 48.0 KHz
Bit depth : 16 bits
Compression mode : Lossy
Stream size : 57.0 MiB (6%)
Text
ID : 189 (0xBD)-32 (0x20)
Format : RLE
Format/Info : Run-length encoding
Muxing mode : DVD-Video
Menu
[cybertorrent.ru].t590.torrent 
Торрент: Зарегистрирован [ 2018-02-15 20:34 ] · C226034514014E2B3CE132EC2BD12AB1C03885CA

Скачать .torrent

Скачать

21 KB

Статус: проверено
Скачан: 0 раз
Размер: 3,94 GB
Профиль [ЛС]
Показать сообщения:    

Текущее время: 25-Май 20:35

Часовой пояс: UTC ± 0



Вы не можете начинать темы
Вы не можете отвечать на сообщения
Вы не можете редактировать свои сообщения
Вы не можете удалять свои сообщения
Вы не можете голосовать в опросах
Вы не можете прикреплять файлы к сообщениям
Вы можете скачивать файлы