Статистика раздачи
Размер:  4,1 GB   |    Зарегистрирован:  8 месяцев 25 дней   |    Скачан:  0 раз

Полного источника не было: Никогда

Личеров:  1  [  0 KB/s  ]  
 
   
 
 

antikvar ®

Пол:
Не указан
Стаж:
8 месяцев 25 дней
Сообщений:
50

[Выпуск 1] | [Выпуск 2] | [Выпуск 3] | [Выпуск 4] | [Выпуск 5]-Человек-паук. Выпуск 5. Проект "ВЕНОМ" / Spider-Man 5: The Venom Saga
Год выпуска: 1994
Страна: США
Жанр: Мультфильм
Продолжительность: 95 мин.
Перевод: Профессиональный (многоголосый, закадровый)
Режиссер: Лэрри Пэдличи,Джон Семпер
Описание:
Легенда о "Человеке-Пауке" продолжается грандиозной битвой против одного из самых заклятых врагов Спайдермена. Когда элемент внеземного происхождения попадает в чужие руки, на волю вырывается смертельно опасный злодей. Включайся в события головокружительной схватки в серии "Человек-Паук и проект "Веном"!
После того, как Спайдермен находит и спасает пилота шаттла, несущего два странных метеорита, он обнаруживает на своем костюме странное черное пятно и замечает странности в собственном поведении. Очень быстро зловещее пятно распространяется на весь его костюм. И вот уже Спайдермен осознает, что он скрывается как от полиции, так и от своих врагов. Заставит ли Веном нашего героя сдаться, или Метатель Паутины все же выстоит в борьбе против этой новой мощной силы?
Доп. информация: Это пятый выпуск, всего их 5!-Качество: DVD5
Формат: DVD Video
Видео: Video: PAL 4:3 (720x576) VBR
Аудио: Russian (Dolby AC3, 6 ch), English (Dolby AC3, 6 ch)
Субтитры: Russian

DVDInfo

Код:Title: SPIDERMAN_PART_05
Size: 4.10 Gb ( 4 302 592,00 KBytes ) - DVD-5
Enabled regions: 1, 2, 3, 4, 5, 6, 7, 8
VTS_01 :
Play Length: 00:00:04
Video: PAL 4:3 (720x576) VBR
VTS_02 :
Play Length: 00:00:12
Video: PAL 4:3 (720x576) VBR
Audio:
Not specified (Dolby AC3, 3 ch)
VTS_03 :
Play Length: 01:34:58
Video: PAL 4:3 (720x576) VBR
Audio:
Russian (Dolby AC3, 6 ch)
English (Dolby AC3, 6 ch)
Subtitles:
Russian
* Menus Information *
VIDEO_TS Menu
Video:
PAL 4:3 (720x576) VBR
English Language Unit :
Title Menu
VTS_01 Menu
Video:
PAL 4:3 (720x576) VBR
Audio:
Not specified (Dolby AC3, 2 ch)
English Language Unit :
Root Menu
VTS_02 Menu
Video:
PAL 4:3 (720x576) VBR
English Language Unit :
Root Menu
VTS_03 Menu
Video:
PAL 4:3 (720x576) VBR
English Language Unit :
Root Menu

MediaInfo

Код:General
Complete name : VTS_03_1.VOB
Format : MPEG-PS
File size : 1 024 MiB
Duration : 24mn 14s
Overall bit rate mode : Variable
Overall bit rate : 5 904 Kbps
Writing library : (c) 1997-2004 Womble Multimedia, Inc. / MPEG Video
Wizard (12/2003) / Mar 14 2004
Video
ID : 224 (0xE0)
Format : MPEG Video
Format version : Version 2
Format profile : Main@Main
Format settings, BVOP : Yes
Format settings, Matrix : Default
Format settings, GOP : Variable
Duration : 24mn 14s
Bit rate mode : Variable
Bit rate : 5 019 Kbps
Maximum bit rate : 8 300 Kbps
Width : 720 pixels
Height : 576 pixels
Display aspect ratio : 4:3
Frame rate : 25.000 fps
Standard : PAL
Color space : YUV
Chroma subsampling : 4:2:0
Bit depth : 8 bits
Scan type : Interlaced
Scan order : Top Field First
Compression mode : Lossy
Bits/(Pixel*Frame) : 0.484
Time code of first frame : 00:00:00:00
Time code source : Group of pictures header
Stream size : 870 MiB (85%)
Writing library : (c) 1997-2004 Womble Multimedia, Inc. / MPEG Video
Wizard (12/2003) / Mar 14 2004
Color primaries : BT.601 PAL
Transfer characteristics : BT.470 System B, BT.470 System G
Matrix coefficients : BT.601
Audio #1
ID : 189 (0xBD)-128 (0x80)
Format : AC-3
Format/Info : Audio Coding 3
Mode extension : CM (complete main)
Format settings, Endianness : Big
Muxing mode : DVD-Video
Duration : 24mn 14s
Bit rate mode : Constant
Bit rate : 384 Kbps
Channel(s) : 6 channels
Channel positions : Front: L C R, Side: L R, LFE
Sampling rate : 48.0 KHz
Bit depth : 16 bits
Compression mode : Lossy
Delay relative to video : -80ms
Stream size : 66.6 MiB (7%)
Audio #2
ID : 189 (0xBD)-129 (0x81)
Format : AC-3
Format/Info : Audio Coding 3
Mode extension : CM (complete main)
Format settings, Endianness : Big
Muxing mode : DVD-Video
Duration : 24mn 14s
Bit rate mode : Constant
Bit rate : 384 Kbps
Channel(s) : 6 channels
Channel positions : Front: L C R, Side: L R, LFE
Sampling rate : 48.0 KHz
Bit depth : 16 bits
Compression mode : Lossy
Delay relative to video : -80ms
Stream size : 66.6 MiB (7%)
Text
ID : 189 (0xBD)-32 (0x20)
Format : RLE
Format/Info : Run-length encoding
Muxing mode : DVD-Video
Menu

Скриншоты

[cybertorrent.ru].t666.torrent 
Торрент: Зарегистрирован [ 2018-02-15 22:25 ] · A73934CCD44108FD2320D5D03D99B9F9A8619945

Скачать .torrent

Скачать

22 KB

Статус: проверено
Скачан: 0 раз
Размер: 4,1 GB
Профиль [ЛС]
Показать сообщения:    

Текущее время: 13-Ноя 02:27

Часовой пояс: UTC ± 0



Вы не можете начинать темы
Вы не можете отвечать на сообщения
Вы не можете редактировать свои сообщения
Вы не можете удалять свои сообщения
Вы не можете голосовать в опросах
Вы не можете прикреплять файлы к сообщениям
Вы можете скачивать файлы
Torrents24.ru открытый BitTorrent Torrents24.pl открытый BitTorrent CyberTorrent.ru открытый BitTorrent BtList.ru рейтинг BitTorrent трекеров Яндекс.Метрика