Статистика раздачи
Размер:  4,93 GB   |    Зарегистрирован:  3 дня   |    Скачан:  0 раз

Полного источника не было: Никогда

 
   
 
 

Катюшка ®

Пол:
Не указан
Стаж:
6 дней
Сообщений:
22

Альбино аллигатор / Albino Alligator
Страна: США, Франция
Жанр: драма, криминал, триллер
Год выпуска: 1996
Продолжительность: 01:30:21
Перевод: Профессиональный (двухголосый закадровый) НТВ+
Субтитры: нет
Оригинальная аудиодорожка: английский
Режиссер: Кевин Спэйси / Kevin Spacey
В ролях: Мэтт Диллон, Фэй Данауэй, Гэри Синиз, Уильям Фихтнер, Вигго Мортенсен, Джон Спенсер, Скит Ульрих, Фрэнки Фэйзон, Мелинда МакГроу, М. Эммет Уолш, Джо Мантенья, Даг Спинуцца, Спенсер Гаррет, Энрико Колантони, Трэвис Аппель, Брэд Копеник, Джок Уорфен, Уилли С. Карпентер, Александр Смит, Майкл Унгер, Тони Монтгомери, Джеффри Хоффман, Аура Фигуередо, Энтони Мур
Описание: Не каждый может стать героем. Но жертвами могут оказаться все. Идеально задуманное преступление не удалось. Несколько преступников скрываются от погони в маленьком подвальном кабачке. Все посетители взяты в заложники. Полиция блокирует единственный выход.
Ни полиция, ни бандиты не собираются уступать. Один из преступников вспоминает про то, как стая аллигаторов использует своего собрата-альбиноса в качестве приманки для конкурентов. Кто станет этой жертвой? И случайно ли преступники оказались в западне?

Сэмпл: http://sendfile.su/1399598
Тип релиза: HDTV 1080i
Контейнер: TS
Видео: AVC, 1920х1080, 7032 Kbps, 25.000 fps
Аудио: русский, MP2, 2 ch, 192 Kbps, 48.0 KHz
Аудио 2: английский, MP2, 2 ch, 192 Kbps, 48.0 KHz
Rip by

MediaInfo

General
ID : 1 (0x1)
Complete name : W:\Рипер 1\Альбино аллигатор 1080i (1996).ts
Format : MPEG-TS
File size : 4.93 GiB
Duration : 1h 30mn
Overall bit rate mode : Variable
Overall bit rate : 7 805 Kbps
Video
ID : 1210 (0x4BA)
Menu ID : 142 (0x8E)
Format : AVC
Format/Info : Advanced Video Codec
Format profile : High@L4.0
Format settings, CABAC : Yes
Format settings, ReFrames : 4 frames
Format settings, GOP : M=4, N=28
Codec ID : 27
Duration : 1h 30mn
Bit rate : 7 032 Kbps
Width : 1 920 pixels
Height : 1 080 pixels
Display aspect ratio : 16:9
Frame rate : 25.000 fps
Standard : Component
Color space : YUV
Chroma subsampling : 4:2:0
Bit depth : 8 bits
Scan type : Interlaced
Scan order : Top Field First
Bits/(Pixel*Frame) : 0.136
Stream size : 4.44 GiB (90%)
Color primaries : BT.709
Transfer characteristics : BT.709
Matrix coefficients : BT.709
Audio #1
ID : 1211 (0x4BB)
Menu ID : 142 (0x8E)
Format : MPEG Audio
Format version : Version 1
Format profile : Layer 2
Codec ID : 3
Duration : 1h 30mn
Bit rate mode : Constant
Bit rate : 192 Kbps
Channel(s) : 2 channels
Sampling rate : 48.0 KHz
Compression mode : Lossy
Stream size : 124 MiB (2%)
Language : Russian
Audio #2
ID : 1212 (0x4BC)
Menu ID : 142 (0x8E)
Format : MPEG Audio
Format version : Version 1
Format profile : Layer 2
Codec ID : 3
Duration : 1h 30mn
Bit rate mode : Constant
Bit rate : 192 Kbps
Channel(s) : 2 channels
Sampling rate : 48.0 KHz
Compression mode : Lossy
Stream size : 124 MiB (2%)
Language : English

Скриншоты

[cybertorrent.ru].t6824.torrent 
Торрент: Зарегистрирован [ 2018-02-18 12:14 ] · 44D5DAE2FFB7AC61D86B13C4FA95515F32D076BF

Скачать .torrent

Скачать

25 KB

Статус: проверено
Скачан: 0 раз
Размер: 4,93 GB
terms.php
Профиль [ЛС]
Показать сообщения:    

Текущее время: 21-Фев 17:03

Часовой пояс: UTC ± 0



Вы не можете начинать темы
Вы не можете отвечать на сообщения
Вы не можете редактировать свои сообщения
Вы не можете удалять свои сообщения
Вы не можете голосовать в опросах
Вы не можете прикреплять файлы к сообщениям
Вы можете скачивать файлы