Статистика раздачи
Размер:  1,45 GB   |    Зарегистрирован:  4 дня   |    Скачан:  0 раз

Полного источника не было: Никогда

 
   
 
 

lopster ®

Пол:
Не указан
Стаж:
4 дня
Сообщений:
509

Мы из будущего-Жанр: фантастика, драма, военный
Год выпуска: 2008
Продолжительность: 01:55:35
Режиссёр: Андрей Малюков
В ролях: Данила Козловский, Андрей Терентьев, Владимир Яглыч, Дмитрий Волкострелов, Екатерина Климова, Борис Галкин, Даниил Страхов, Сергей Маховиков, Игорь Черневич, Ральф Шиха, Зоя Буряк, Сергей Мухин, и др.
Описание: Четверо ребят, наших современников, связаны общим делом: они ищут и продают боевые трофеи времён Второй мировой войны, зарабатывая тем самым неплохие деньги. Их называют "чёрными копателями". Лидер в этой компании – Борман. Он выбирает место для раскопок, читает много книг, написанных участниками военных событий. Череп - скинхед, мечтающий найти немецкое оружие. Спирт - современный музыкант, ему просто нужны деньги, чтобы заниматься любимым делом, а Чуха - компьютерщик, подсевший на виртуальные игры.
Однажды на очередном месте раскопок происходит нечто странное: в блиндаже времён войны ребята обнаруживают солдатские книжки. С фотографий на них глядят… они сами! Пытаясь прийти в себя и надеясь, что увиденное примерещилось им в результате теплового удара, парни отправляются купаться. Таинственное озеро перемещает их в далёкое прошлое, на 65 лет назад. Молодые люди выныривают и оказываются в эпицентре боевых действий 1942 года.
Им предстоит пережить немало приключений, найти и потерять любовь, проверить свою дружбу, узнать настоящую цену жизни и по-новому взглянуть на трагические страницы в истории своей родины.-DVD9
sample-Качество видео: DVDRip
Формат видео: AVI
Видео: 720x384 (1.88:1), 25 fps, XviD build 47 ~1407 kbps avg, 0.20 bit/pixel
Аудио: 48 kHz, AC3 Dolby Digital, 3/2 (L,C,R,l,r) + LFE ch, ~384.00 kbps avg

AviInfo

File: My.iz.budushego.2008.avi
FileSize: 1489.63 Mb ( 1 561 985 024 bytes )
Play length: 01:55:35.520 (173388 frames)
Subtitles: Not Present
Video: 720x384 (1.88:1), 25 fps, XviD build 47 ~1407 kbps avg, 0.20 bit/pixel
Audio: 48 kHz, AC3 Dolby Digital, 3/2 (L,C,R,l,r) + LFE ch, ~384 kbps

MediaInfo

Общее
Полное имя : D:\My.iz.budushego.2008.avi
Формат : AVI
Формат/Информация : Audio Video Interleave
Размер файла : 1,45 Гбайт
Продолжительность : 1 ч. 55 м.
Общий поток : 1802 Кбит/сек
Программа кодирования : VirtualDubMod 1.5.10.2 (build 2540/release)
Библиотека кодирования : VirtualDubMod build 2540/release
Видео
Идентификатор : 0
Формат : MPEG-4 Visual
Профиль формата : Advanced Simple@L5
Параметр BVOP формата : 1
Параметр QPel формата : Нет
Параметр GMC формата : Без точки перехода
Параметр матрицы формата : Default (H.263)
Идентификатор кодека : XVID
Идентификатор кодека/Подсказка : XviD
Продолжительность : 1 ч. 55 м.
Битрейт : 1408 Кбит/сек
Ширина : 720 пикселей
Высота : 384 пикселя
Соотношение сторон : 1,85:1
Частота кадров : 25,000 кадров/сек
Цветовое пространство : YUV
Субдискретизация насыщенности : 4:2:0
Битовая глубина : 8 бит
Тип развёртки : Прогрессивная
Метод сжатия : С потерями
Бит/(Пиксели*Кадры) : 0.204
Размер потока : 1,14 Гбайт (78%)
Библиотека кодирования : XviD 1.2.0.dev47 (UTC 2006-11-01)
Аудио
Идентификатор : 1
Формат : AC-3
Формат/Информация : Audio Coding 3
Расширение режима : CM (complete main)
Параметр Endianness формата : Big
Идентификатор кодека : 2000
Продолжительность : 1 ч. 55 м.
Вид битрейта : Постоянный
Битрейт : 384 Кбит/сек
Каналы : 6 каналов
Расположение каналов : Front: L C R, Side: L R, LFE
Частота : 48,0 КГц
Битовая глубина : 16 бит
Метод сжатия : С потерями
Размер потока : 317 Мбайт (21%)
Выравнивание : Разделение по промежуткам
Продолжительность промежутка : 40 мс. (1,00 видеокадр)
Время предзагрузки промежутка : 500 мс.

Скриншот c названием фильма

Скриншоты

В рамках ликвидации приватных раздач, торрент-файл перезагружен 18-Май-17 04:53.

http://rutracker.org/forum/viewtopic.php?t=5403618-Оформление отредактировано, для приведения в соответствие с действующими правилами раздела "Наше кино" - http://rutracker.org/forum/viewtopic.php?t=2593632 .-Содержимое не менялось. Просьба к ранее скачавшим, скачать новый торрент-файл и присоединиться к раздаче - http://rutracker.org/forum/viewtopic.php?t=3473252 .
[cybertorrent.ru].t99.torrent 
Торрент: Зарегистрирован [ 2018-02-15 13:57 ] · 71B2D59521E9AD691931BABFA6206D4AAC2EDBDB

Скачать .torrent

Скачать

15 KB

Статус: проверено
Скачан: 0 раз
Размер: 1,45 GB
terms.php
Профиль [ЛС]
Показать сообщения:    

Текущее время: 20-Фев 05:32

Часовой пояс: UTC ± 0



Вы не можете начинать темы
Вы не можете отвечать на сообщения
Вы не можете редактировать свои сообщения
Вы не можете удалять свои сообщения
Вы не можете голосовать в опросах
Вы не можете прикреплять файлы к сообщениям
Вы можете скачивать файлы