Статистика раздачи
Размер:  4,36 GB   |    Зарегистрирован:  3 месяца 11 дней   |    Скачан:  0 раз

Полного источника не было: Никогда

 
   
 
 

xfactor ®

Пол:
Не указан
Стаж:
3 месяца 12 дней
Сообщений:
238

Человек умер / Un homme est mort
Страна: Италия, Франция, США
Жанр: боевик, триллер, драма, криминал
Год выпуска: 1972
Продолжительность: 01:45:55
Перевод: Одноголосый, закадровый
Субтитры: нет
Оригинальная аудиодорожка: французская
Режиссер: Жак Дере / Jacques Deray
В ролях: Жан-Луи Трентиньян, Энн-Маргрет, Рой Шайдер, Энджи Дикинсон, Джорджия Энджел, Феличе Орланди, Карло Де Мейо, Мишель Константен, Умберто Орсини, Кармен Ардженциано
Описание: Герой фильма — Роже Гарнье — киллер. Выполнив заказ, Роже сам оказывается под прицелом: его преследуют, чтобы убить. Сначала он скрывается от погони, а потом решает найти заказчиков своего убийства…
Меню: есть, статичное
Тип релиза: DVD5
Контейнер: DVD-Video
Видео: PAL 4:3 (720x576(0.503)) MPEG Video, 25,000 кадр/сек, 5218 Кбит/сек
Аудио: Russian (Dolby AC-3, 2 ch) 192 Кбит/сек, 48.0 КГц
Аудио 2: French (Dolby AC-3, 2 ch) 192 Кбит/сек, 48.0 КГц

MediaInfo

Общее
Полное имя : Homme Est Mort\VIDEO_TS\VTS_03_1.VOB
Формат : MPEG-PS
Размер файла : 1024 Мбайт
Продолжительность : 25 м. 2 с.
Режим общего битрейта : Постоянный
Общий поток : 5716 Кбит/сек
Видео
Идентификатор : 224 (0xE0)
Формат : MPEG Video
Версия формата : Version 2
Профиль формата : Main@Main
Настройки формата : CustomMatrix / BVOP
Параметр BVOP формата : Да
Параметр матрицы формата : Выборочная
Параметр GOP формата : M=3, N=12
Структура изображения : Frame
Продолжительность : 25 м. 2 с.
Вид битрейта : Постоянный
Битрейт : 5218 Кбит/сек
Максимальный битрейт : 6400 Кбит/сек
Ширина : 720 пикселей
Высота : 576 пикселей
Соотношение сторон : 4:3
Частота кадров : 25,000 кадров/сек
Стандарт вещания : PAL
Цветовое пространство : YUV
Субдискретизация насыщенности : 4:2:0
Битовая глубина : 8 бит
Тип развёртки : Чересстрочная
Порядок развёртки : Верхнее поле первое
Метод сжатия : С потерями
Бит/(Пиксели*Кадры) : 0.503
Временной код первого кадра : 00:00:00:00
Оригинал временного кода : Group of pictures header
GOP, открыто/закрыто : Закрыто
Размер потока : 935 Мбайт (91%)
Аудио #1
Идентификатор : 189 (0xBD)-128 (0x80)
Формат : AC-3
Формат/Информация : Audio Coding 3
Режим смешивания : DVD-Video
Продолжительность : 25 м. 2 с.
Вид битрейта : Постоянный
Битрейт : 192 Кбит/сек
Каналы : 2 канала
Расположение каналов : Front: L R
Частота : 48,0 КГц
Частота кадров : 31,250 кадров/сек (1536 SPF)
Битовая глубина : 16 бит
Метод сжатия : С потерями
Размер потока : 34,4 Мбайт (3%)
ServiceKind/String : Complete Main
Аудио #2
Идентификатор : 189 (0xBD)-129 (0x81)
Формат : AC-3
Формат/Информация : Audio Coding 3
Режим смешивания : DVD-Video
Продолжительность : 25 м. 2 с.
Вид битрейта : Постоянный
Битрейт : 192 Кбит/сек
Каналы : 2 канала
Расположение каналов : Front: L R
Частота : 48,0 КГц
Частота кадров : 31,250 кадров/сек (1536 SPF)
Битовая глубина : 16 бит
Метод сжатия : С потерями
Размер потока : 34,4 Мбайт (3%)
ServiceKind/String : Complete Main

Скриншоты меню

Скриншоты

[cybertorrent.ru].t1110.torrent 
Торрент: Зарегистрирован [ 2018-02-16 03:41 ] · C87F9DD2BA75FBA22EC5BBFF0D564D7F632E3AB4

Скачать .torrent

Скачать

12 KB

Статус: проверено
Скачан: 0 раз
Размер: 4,36 GB
Профиль [ЛС]
Показать сообщения:    

Текущее время: 27-Май 19:55

Часовой пояс: UTC ± 0



Вы не можете начинать темы
Вы не можете отвечать на сообщения
Вы не можете редактировать свои сообщения
Вы не можете удалять свои сообщения
Вы не можете голосовать в опросах
Вы не можете прикреплять файлы к сообщениям
Вы можете скачивать файлы