Статистика раздачи
Размер:  4,09 GB   |    Зарегистрирован:  3 месяца 11 дней   |    Скачан:  0 раз

Полного источника не было: Никогда

Личеров:  1  [  0 KB/s  ]  
 
   
 
 

Keeper ®

Пол:
Не указан
Стаж:
3 месяца 12 дней
Сообщений:
655

Хорошие шутки.Сезон 3. Выпуск 3(Павел Бессонов, Аристарх Венес, Александр Головин - Антон Камолов, Ольга Шелест, Василий Соловьев)
Год выпуска: 2008
Страна: Россия
Жанр: Юмористическая передача
Продолжительность: 01:34:27
Описание:Неподражаемые ведущие Татьяна Лазарева и Михаил Шац (О.С.П.-студия ), а также их музыкальный помощник, человек-оркестр Александр Пушной приглашают к себе в гости своих друзей – звезд эстрады, телевидения, кино, спорта и даже политики, которые тоже приводят своих друзей. И вот они все вместе, с шутками и прибаутками, конкурс за конкурсом, бьются стенка на стенку, пробивая себе дорогу к победе, пока кто-нибудь не помрет со смеху.
Релиз
Качество: DVB
Формат: MPEG
Видео кодек: MPEG2
Аудио кодек:MPEG1 Layer 2
Видео: MPEG2 Video 720x576 (4:3) 25.00fps 5 816 Kbps Кбит/сек
Аудио: MPEG Audio 48000Hz stereo 256 Кбит/сек

Mi

Complete name : F:\TORENTRAZDACHI\Хорошие шутки\Хорошие шутки.Сезон 3. Выпуск 3.mpg
Format : MPEG-PS
File size : 4.09 GiB
Duration : 1h 34mn
Overall bit rate : 6 195 Kbps
Video
ID : 224 (0xE0)
Format : MPEG Video
Format version : Version 2
Format profile : Main@Main
Format settings, BVOP : Yes
Format settings, Matrix : Default
Duration : 1h 34mn
Bit rate mode : Variable
Bit rate : 5 816 Kbps
Nominal bit rate : 15.0 Mbps
Width : 720 pixels
Height : 576 pixels
Display aspect ratio : 4:3
Frame rate : 25.000 fps
Standard : PAL
Color space : YUV
Chroma subsampling : 4:2:0
Bit depth : 8 bits
Scan type : Interlaced
Scan order : Top Field First
Bits/(Pixel*Frame) : 0.561
Stream size : 3.84 GiB (94%)
Audio
ID : 192 (0xC0)
Format : MPEG Audio
Format version : Version 1
Format profile : Layer 2
Mode : Dual mono
Duration : 1h 34mn
Bit rate mode : Constant
Bit rate : 256 Kbps
Channel(s) : 2 channels
Sampling rate : 48.0 KHz
Video delay : -40ms
Stream size : 173 MiB (4%)

Скринлист

Скриншоты

[cybertorrent.ru].t1390.torrent 
Торрент: Зарегистрирован [ 2018-02-16 03:41 ] · 3B7DE272BB828983285FCBFCEC4EB3D58E254894

Скачать .torrent

Скачать

21 KB

Статус: проверено
Скачан: 0 раз
Размер: 4,09 GB
Профиль [ЛС]
Показать сообщения:    

Текущее время: 27-Май 19:55

Часовой пояс: UTC ± 0



Вы не можете начинать темы
Вы не можете отвечать на сообщения
Вы не можете редактировать свои сообщения
Вы не можете удалять свои сообщения
Вы не можете голосовать в опросах
Вы не можете прикреплять файлы к сообщениям
Вы можете скачивать файлы