Статистика раздачи
Размер:  581 MB   |    Зарегистрирован:  3 месяца 5 дней   |    Скачан:  0 раз

Полного источника не было: Никогда

Личеров:  1  [  0 KB/s  ]  
 
   
 
 

kex ®

Пол:
Не указан
Стаж:
3 месяца 6 дней
Сообщений:
324

Дачный ответ / Гостиная с резным потолком (N 134) / 24.03.2013 -Год выпуска: 2013
Страна: Россия
Жанр: ТВ-шоу
Продолжительность: 00:49:33
Перевод: Не требуется-Ведущий: Татьяна Грамон-Описание: Герои этой программы – большие поклонники восточной культуры. Именно поэтому дизайнер Элина Туктамишева решила внести элементы мавританского стиля в оформление интерьера их гостиной – украсила потолок сложнейшим ориентальным узором. И превратила тесную «лестничную клетку» в стильный интерьер, построенный на игре объемов и фактур.-Качество: SATRip
Формат: AVI
Видео кодек: DivX
Аудио кодек: MP3
Видео: 704x400 (1.76:1), 25 fps, DivX Codec 6.8.5/6.9.1 ~1499 kbps avg
Аудио: 48 kHz, MPEG Layer 3, 2 ch, ~128.00 kbps avg

MI

Общее
Полное имя : D:\Раздачи\Дачный ответ. (Эфир от 24.03.2013) SATRip.avi
Формат : AVI
Формат/Информация : Audio Video Interleave
Размер файла : 581 Мбайт
Продолжительность : 49 м.
Общий поток : 1638 Кбит/сек
Библиотека кодирования : VirtualDub build 28312/release
Видео
Идентификатор : 0
Формат : MPEG-4 Visual
Параметр BVOP формата : 1
Параметр QPel формата : Нет
Параметр GMC формата : Без точки перехода
Параметр матрицы формата : Default (H.263)
Режим смешивания : Сжатый битовый поток
Идентификатор кодека : DX50
Идентификатор кодека/Подсказка : DivX 5
Продолжительность : 49 м.
Битрейт : 1500 Кбит/сек
Ширина : 704 пикселя
Высота : 400 пикселей
Соотношение сторон : 16:9
Частота кадров : 25,000 кадров/сек
Цветовое пространство : YUV
Субдискретизация насыщенности : 4:2:0
Битовая глубина : 8 бит
Тип развёртки : Прогрессивная
Метод сжатия : С потерями
Бит/(Пиксели*Кадры) : 0.213
Размер потока : 532 Мбайт (92%)
Библиотека кодирования : DivX 6.8.5 (UTC 2009-08-20)
Аудио
Идентификатор : 1
Формат : MPEG Audio
Версия формата : Version 1
Профиль формата : Layer 3
Режим : Joint stereo
Расширение режима : MS Stereo
Идентификатор кодека : 55
Идентификатор кодека/Подсказка : MP3
Продолжительность : 49 м.
Вид битрейта : Постоянный
Битрейт : 128 Кбит/сек
Каналы : 2 канала
Частота : 48,0 КГц
Метод сжатия : С потерями
Задержка видео : 90 мс.
Размер потока : 45,4 Мбайт (8%)
Выравнивание : Разделение по промежуткам
Продолжительность промежутка : 40 мс. (1,00 видеокадр)
Время предзагрузки промежутка : 500 мс.

Скриншоты

[cybertorrent.ru].t1530.torrent 
Торрент: Зарегистрирован [ 2018-02-16 08:13 ] · D1A9DC83F3EA48DA9B6956668E4F1D43588BDEAB

Скачать .torrent

Скачать

12 KB

Статус: проверено
Скачан: 0 раз
Размер: 581 MB
Профиль [ЛС]
Показать сообщения:    

Текущее время: 21-Май 20:17

Часовой пояс: UTC ± 0



Вы не можете начинать темы
Вы не можете отвечать на сообщения
Вы не можете редактировать свои сообщения
Вы не можете удалять свои сообщения
Вы не можете голосовать в опросах
Вы не можете прикреплять файлы к сообщениям
Вы можете скачивать файлы