Статистика раздачи
Размер:  41,77 GB   |    Зарегистрирован:  3 месяца 10 дней   |    Скачан:  0 раз

Полного источника не было: Никогда

 
   
 
 

martin ®

Пол:
Не указан
Стаж:
3 месяца 11 дней
Сообщений:
256

Ледниковый период - 2013. Выпуск 01-17 (Из 17)
Год выпуска: 2013
Страна: Россия
Жанр: Фигурное катание, Тв-шоу
Продолжительность: 02:30:00 / выпуск
Перевод: Не требуется
Русские субтитры: нет
Описание: Самый зрелищный, непредсказуемый, обсуждаемый, любимый проект возвращается в эфир. 8 сентября на Первом канале – премьера нового сезона шоу "Ледниковый период"! Под руку с олимпийскими чемпионами и чемпионами мира по фигурному катанию на лед выйдут новички – звезды кино, телевидения и шоу-бизнеса. За исключением одного участника – звезды НХЛ – никто из новых героев кататься на коньках не умел. Среди новичков на льду: Артем Михалков, Оскар Кучера, Алексей Яшин, Аскольд Запашный, Владимир Яглыч, Дмитрий Хрусталев, Петр Кислов, Лянка Грыу, Нюша, Ирина Медведева, Юлия Зимина, Анита Цой, Маруся Зыкова, Екатерина Шпица. Их партнеры – олимпийские чемпионы и чемпионы мира по фигурному катанию: Татьяна Навка, Татьяна Тотьмянина, Яна Хохлова, Албена Денкова, Оксана Домнина, Маргарита Дробязко, Мария Петрова, Роман Костомаров, Алексей Тихонов, Петр Чернышев, Максим Маринин, Повилас Ванагас, Максим Шабалин, Максим Ставиский. По правилам проекта, оценки судей и голоса зрителей будут суммироваться. Начиная с 5 выпуска, одна пара, в активе которой окажется наименьшее количество баллов, будет покидать проект. Победителями шоу станут участники, заработавшие наибольшее количество баллов от судей и голосов зрителей. У проекта, как и прежде, два тренера – Илья Авербух и Александр Жулин. Председатель жюри – Татьяна Тарасова.
Ведущие проекта: Ирина Слуцкая и Алексей Ягудин
Источник: собственный рип
Все раздачи шоу: http://cybertorrent.ru/tracker.php?nm=%D0%9B%D0%B5%D0%B4%D0%BD%D0%B8%D0%BA%D0...0%BD%D0%BE%D0%B5
Доп. информация: Релиз -

Рип чистый. Без посторонних надписей. Выкладывается как есть.
Качество: HDTVRip
Формат: AVI
Видео кодек: XVID
Аудио кодек: MP3
Видео: 720x400 (16:9) 23.976 fps 2 100 Kbps, 0.292 bit/pixel
Аудио: MPEG Audio, 48000Hz, 2 channels, 192 Кбит/сек

Скриншоты


Скринлисты




Постер HQ

MI

General
Complete name : D:\Выкладка\Ледниковый период - 2013 (2013, Фигурное катание, Тв-шоу, HDTVRip) (MYDIMKA)\01 выпуск (08.09.2013).avi
Format : AVI
Format/Info : Audio Video Interleave
Format profile : OpenDML
File size : 2.57 GiB
Duration : 2h 39mn
Overall bit rate : 2 303 Kbps
Writing application : VirtualDubMod 1.5.10.3 | www.virtualdub-fr.org || (build 2550/release)
Writing library : VirtualDubMod build 2550/release
Video
ID : 0
Format : MPEG-4 Visual
Format profile : Advanced Simple@L5
Format settings, BVOP : 2
Format settings, QPel : No
Format settings, GMC : No warppoints
Format settings, Matrix : Default (H.263)
Muxing mode : Packed bitstream
Codec ID : XVID
Codec ID/Hint : XviD
Duration : 2h 39mn
Bit rate : 2 100 Kbps
Width : 720 pixels
Height : 400 pixels
Display aspect ratio : 16:9
Frame rate : 23.976 fps
Color space : YUV
Chroma subsampling : 4:2:0
Bit depth : 8 bits
Scan type : Progressive
Compression mode : Lossy
Bits/(Pixel*Frame) : 0.304
Stream size : 2.34 GiB (91%)
Writing library : XviD 1.2.1 (UTC 2008-12-04)
Audio
ID : 1
Format : MPEG Audio
Format version : Version 1
Format profile : Layer 3
Codec ID : 55
Codec ID/Hint : MP3
Duration : 2h 39mn
Bit rate mode : Constant
Bit rate : 192 Kbps
Channel(s) : 2 channels
Sampling rate : 48.0 KHz
Compression mode : Lossy
Stream size : 219 MiB (8%)
Alignment : Aligned on interleaves
Interleave, duration : 42 ms (1.00 video frame)
Interleave, preload duration : 504 ms
Writing library : LAME3.99r
Encoding settings : -m s -V 4 -q 2 -lowpass 18.6 -b 192
[cybertorrent.ru].t1655.torrent 
Торрент: Зарегистрирован [ 2018-02-16 08:13 ] · A214B17EEC2A7E2431308C95FF3824F8B8E02FD0

Скачать .torrent

Скачать

55 KB

Статус: проверено
Скачан: 0 раз
Размер: 41,77 GB
Профиль [ЛС]
Показать сообщения:    

Текущее время: 26-Май 17:23

Часовой пояс: UTC ± 0



Вы не можете начинать темы
Вы не можете отвечать на сообщения
Вы не можете редактировать свои сообщения
Вы не можете удалять свои сообщения
Вы не можете голосовать в опросах
Вы не можете прикреплять файлы к сообщениям
Вы можете скачивать файлы