Статистика раздачи
Размер:  2,18 GB   |    Зарегистрирован:  3 месяца 12 дней   |    Скачан:  0 раз

Полного источника не было: Никогда

 
   
 
 

lopster ®

Пол:
Не указан
Стаж:
3 месяца 12 дней
Сообщений:
612

Ёлки 2- Жанр: мелодрама, комедия, семейный
Год выпуска: 2011
Продолжительность: 01:40:19
Режиссёр: Дмитрий Киселёв, Александр Баранов, Александр Котт, Леван Габриадзе
В ролях: Сергей Светлаков, Иван Ургант, Вера Брежнева, Сергей Безруков, Владимир Меньшов, Гоша Куценко, Александр Головин, Виктор Вержбицкий, Алексей Петренко, Петр Федоров
Описание: За этот год много чего произошло, но наступит день, который всё расставит на свои места. Продолжение новогодних историй, которые происходили в жизни героев в фильме «Ёлки».
Сэмпл: http://sendfile.su/1306426

Качество видео: BDRip-AVC (Ёлки 2 2011 Blu-ray Disc 1080p)
Формат видео: MKV
Видео: 960x540 (16:9), 23,976 fps, ~2662 kbps avg, 0,214 bit/pixel
Аудио: 48 kHz, AC3 Dolby Digital, 3/2 (L,C,R,l,r) + LFE ch, ~448kbps

MediaInfo

General
Unique ID : 216737915110554793176547834800934720140 (0xA30E343E8EA6D3A489557041DDAF928C)
Format : Matroska
Format version : Version 4 / Version 2
File size : 2.18 GiB
Duration : 1h 40mn
Overall bit rate : 3 111 Kbps
Encoded date : UTC 2017-02-07 07:49:24
Writing application : mkvmerge v9.8.0 ('Kuglblids') 64bit
Writing library : libebml v1.3.4 + libmatroska v1.4.5
Video #1
ID : 1
Format : AVC
Format/Info : Advanced Video Codec
Format profile : High@L4.1
Format settings, CABAC : Yes
Format settings, ReFrames : 10 frames
Codec ID : V_MPEG4/ISO/AVC
Duration : 1h 40mn
Bit rate : 2 662 Kbps
Width : 960 pixels
Height : 540 pixels
Display aspect ratio : 16:9
Frame rate mode : Constant
Frame rate : 23.976 (24000/1001) fps
Color space : YUV
Chroma subsampling : 4:2:0
Bit depth : 8 bits
Scan type : Progressive
Bits/(Pixel*Frame) : 0.214
Stream size : 1.86 GiB (86%)
Writing library : x264 core 148 r2638 7599210
Encoding settings : cabac=1 / ref=10 / deblock=1:-3:-2 / analyse=0x3:0x133 / me=umh / subme=10 / psy=1 / psy_rd=1.00:0.00 / mixed_ref=1 / me_range=32 / chroma_me=1 / trellis=2 / 8x8dct=1 / cqm=0 / deadzone=21,11 / fast_pskip=1 / chroma_qp_offset=-2 / threads=6 / lookahead_threads=1 / sliced_threads=0 / nr=0 / decimate=1 / interlaced=0 / bluray_compat=0 / constrained_intra=0 / bframes=11 / b_pyramid=2 / b_adapt=2 / b_bias=0 / direct=1 / weightb=1 / open_gop=0 / weightp=2 / keyint=250 / keyint_min=23 / scenecut=40 / intra_refresh=0 / rc_lookahead=60 / rc=2pass / mbtree=1 / bitrate=2662 / ratetol=1.0 / qcomp=0.60 / qpmin=0 / qpmax=69 / qpstep=4 / cplxblur=20.0 / qblur=0.5 / ip_ratio=1.40 / aq=3:1.00
Language : Russian
Default : Yes
Forced : No
Audio #2
ID : 2
Format : AC-3
Format/Info : Audio Coding 3
Mode extension : CM (complete main)
Format settings, Endianness : Big
Codec ID : A_AC3
Duration : 1h 40mn
Bit rate mode : Constant
Bit rate : 448 Kbps
Channel(s) : 6 channels
Channel positions : Front: L C R, Side: L R, LFE
Sampling rate : 48.0 KHz
Frame rate : 31.250 fps (1536 spf)
Compression mode : Lossy
Stream size : 321 MiB (14%)
Language : Russian
Default : Yes
Forced : No

лог

raw [info]: 960x540p 1:1 @ 24000/1001 fps (cfr)
x264 [info]: using SAR=1/1
x264 [info]: using cpu capabilities: MMX2 SSE2Fast SSSE3 SSE4.2 AVX XOP FMA4 FMA3 LZCNT BMI1
x264 [info]: profile High, level 4.1
x264 [info]: frame I:1431 Avg QP:14.53 size: 90884
x264 [info]: frame P:35820 Avg QP:18.06 size: 28790
x264 [info]: frame B:107065 Avg QP:21.60 size: 7854
x264 [info]: consecutive B-frames: 3.9% 4.2% 14.5% 23.1% 11.7% 36.6% 2.9% 1.0% 1.1% 0.2% 0.2% 0.6%
x264 [info]: mb I I16..4: 9.7% 60.2% 30.1%
x264 [info]: mb P I16..4: 3.8% 14.5% 2.5% P16..4: 36.4% 19.8% 14.7% 1.1% 0.4% skip: 6.8%
x264 [info]: mb B I16..4: 0.5% 1.5% 0.3% B16..8: 34.6% 10.8% 3.3% direct: 7.2% skip:41.8% L0:42.0% L1:40.8% BI:17.2%
x264 [info]: 8x8 transform intra:67.7% inter:56.2%
x264 [info]: coded y,uvDC,uvAC intra: 73.6% 83.9% 61.1% inter: 22.1% 24.3% 7.9%
x264 [info]: i16 v,h,dc,p: 36% 20% 15% 30%
x264 [info]: i8 v,h,dc,ddl,ddr,vr,hd,vl,hu: 15% 12% 14% 7% 9% 10% 10% 10% 12%
x264 [info]: i4 v,h,dc,ddl,ddr,vr,hd,vl,hu: 15% 11% 10% 8% 12% 12% 11% 10% 12%
x264 [info]: i8c dc,h,v,p: 48% 20% 19% 14%
x264 [info]: Weighted P-Frames: Y:4.5% UV:2.8%
x264 [info]: ref P L0: 48.2% 12.1% 15.2% 6.8% 5.0% 3.8% 3.1% 2.0% 1.8% 1.8% 0.3% 0.0%
x264 [info]: ref B L0: 75.6% 10.5% 5.1% 2.8% 2.1% 1.5% 1.3% 0.7% 0.3%
x264 [info]: ref B L1: 93.0% 7.0%
x264 [info]: kb/s:2661.16
x264 [total]: encoded 144316 frames, 9.48 fps, 2661.16 kb/s

Скриншоты


[cybertorrent.ru].t173.torrent 
Торрент: Зарегистрирован [ 2018-02-15 13:57 ] · 8D8B60A4B86C8E2CDD6B07F53F219249F23CF1EB

Скачать .torrent

Скачать

11 KB

Статус: проверено
Скачан: 0 раз
Размер: 2,18 GB
Профиль [ЛС]
Показать сообщения:    

Текущее время: 27-Май 21:19

Часовой пояс: UTC ± 0



Вы не можете начинать темы
Вы не можете отвечать на сообщения
Вы не можете редактировать свои сообщения
Вы не можете удалять свои сообщения
Вы не можете голосовать в опросах
Вы не можете прикреплять файлы к сообщениям
Вы можете скачивать файлы