Статистика раздачи
Размер:  2,69 GB   |    Зарегистрирован:  3 месяца 5 дней   |    Скачан:  0 раз

Полного источника не было: Никогда

 
   
 
 

koljan ®

Пол:
Не указан
Стаж:
3 месяца 6 дней
Сообщений:
472

Званый ужин 316 (7.03.2014-11.04.2014) WEBRip
Дата/Год выпуска: 2014
Страна: Россия
Жанр: Кулинарное ТВ-шоу
Продолжительность: 48мин/выпуск
Перевод: Не требуется
Телеканал: РЕН-ТВ
Описание: Участники программы - люди самых разных профессий, достатка, возраста, увлечений, жизненных устремлений и кулинарных пристрастий. И даже уметь хорошо готовить им совершенно не обязательно. Важно вот что: герои шоу должны быть уверены в том, что, пригласив гостей на «Званый ужин», смогут создать для них нечто большее, чем просто ужин - незабываемую атмосферу праздника, уюта и непринужденного общения.
Участники:
Тамара Логвинова - фотомодель, 25 лет
Андрей Мациевский - свободный художник, 41 год
Татьяна Счастливая - ведущая женских тренингов
Лев Синельников - аниматор, 23 года
Умакай Гаджиев - универсальный тренер, 30 лет
Релиз: AlexPAINter

качество: WEBRip
формат: AVI
Видео: XVID 704x528 25.00fps 2passVBR ~1400Kbps
Аудио: MP3 48000Hz 1ch 160Kbps (remaster)

MediaInfo

Общее
Полное имя : I:\званый ужин\Званый ужин - 316\ZU316_01.avi
Формат : AVI
Формат/Информация : Audio Video Interleave
Размер файла : 550 Мбайт
Продолжительность : 48 м.
Общий поток : 1582 Кбит/сек
Название фильма : Званый ужин 316. День 1 (2014.04.07)
Название фильма/Ссылка : http://www.ex.ua/view/5075550
Режиссёр : ©2014 WEBRip by AlexPAINter
Кодирование произвёл : ©2014 by AlexPAINter
Жанр : развлекательный
Тема : WEBRip / РЕН-ТВ / 2014.04.07
Ограничения прав : G / без ограничений
Дата записи : 2014.04.07
Программа кодирования : AVISynth 2.58 / VirtualDubMod 1.5.10.3
Формат оригинала/Имя : телепередача
Примечание : О программе: / Участники программы - люди самых разных профессий, достатка, возраста, увлечений, жизненных устремлений и кулинарных пристрастий. И даже уметь хорошо готовить им совершенно не обязательно. Важно вот что: герои шоу должны быть уверены в том, что, пригласив гостей на «Званый ужин», смогут создать для них нечто большее, чем просто ужин - незабываемую атмосферу праздника, уюта и непринужденного общения. / / Выпущено: РЕН-ТВ, Россия / Продолжительность: 48мин/выпуск / Перевод: Оригинал / Релиз: AlexPAINter / / / WEBRip AVI / Формат: AVI / Качество: WEBRip / Видео: XVID 704x528 25.00fps 2passVBR ~1400Kbps / Звук: MP3 48000Hz 1ch 160Kbps (remaster) / Размер: 550Mb/выпуск / / / / Участники: / Тамара Логвинова - фотомодель, 25 лет / Андрей Мациевский - свободный художник, 41 год / Татьяна Счастливая - ведущая женских тренингов / Лев Синельников - аниматор, 23 года / Умакай Гаджиев - универсальный тренер, 30 лет
Видео
Идентификатор : 0
Формат : MPEG-4 Visual
Профиль формата : Advanced Simple@L5
Параметр BVOP формата : 1
Параметр QPel формата : Нет
Параметр GMC формата : Без точки перехода
Параметр матрицы формата : Default (H.263)
Идентификатор кодека : XVID
Идентификатор кодека/Подсказка : XviD
Продолжительность : 48 м.
Битрейт : 1413 Кбит/сек
Ширина : 704 пикселя
Высота : 528 пикселей
Соотношение сторон : 4:3
Частота кадров : 25,000 кадров/сек
Цветовое пространство : YUV
Субдискретизация насыщенности : 4:2:0
Битовая глубина : 8 бит
Тип развёртки : Прогрессивная
Метод сжатия : С потерями
Бит/(Пиксели*Кадры) : 0.152
Размер потока : 491 Мбайт (89%)
Библиотека кодирования : XviD 1.2.1 (UTC 2008-12-04)
Аудио
Идентификатор : 1
Формат : MPEG Audio
Версия формата : Version 1
Профиль формата : Layer 3
Идентификатор кодека : 55
Идентификатор кодека/Подсказка : MP3
Продолжительность : 48 м.
Вид битрейта : Постоянный
Битрейт : 160 Кбит/сек
Каналы : 1 канал
Частота : 44,1 КГц
Метод сжатия : С потерями
Размер потока : 55,6 Мбайт (10%)
Выравнивание : Разделение по промежуткам
Продолжительность промежутка : 40 мс. (1,00 видеокадр)
Время предзагрузки промежутка : 500 мс.
Библиотека кодирования : LAME3.99r
Настройки программы : -m m -V 4 -q 2 -lowpass 20.5 -b 160
Язык : Русский

Участники

Меню ужинов

[cybertorrent.ru].t1851.torrent 
Торрент: Зарегистрирован [ 2018-02-16 08:44 ] · 749B1D7C4FC8D234BF7936CC7D9BFF40B06A1836

Скачать .torrent

Скачать

14 KB

Статус: проверено
Скачан: 0 раз
Размер: 2,69 GB
Профиль [ЛС]
Показать сообщения:    

Текущее время: 21-Май 20:17

Часовой пояс: UTC ± 0



Вы не можете начинать темы
Вы не можете отвечать на сообщения
Вы не можете редактировать свои сообщения
Вы не можете удалять свои сообщения
Вы не можете голосовать в опросах
Вы не можете прикреплять файлы к сообщениям
Вы можете скачивать файлы