Статистика раздачи
Размер:  512 MB   |    Зарегистрирован:  3 месяца 5 дней   |    Скачан:  0 раз

Полного источника не было: Никогда

Личеров:  1  [  0 KB/s  ]  
 
   
 
 

Бона ®

Пол:
Не указан
Стаж:
3 месяца 6 дней
Сообщений:
395

В постели с Тимошенко. Новые русские сенсации. Премьера!
Дата/Год выпуска: 19/04/2014
Страна: Россия
Жанр: Документальный
Продолжительность: 00:43:00
Перевод: Не требуется
Русские субтитры: нет
Режиссер: ООО "ППК"
Телеканал: НТВ
Описание: Как Юлия Тимошенко увела мужа у фотомодели, с кем по ночам уединялась в гостинице Мюнхена и зачем разрушила брак родной дочери?
Почему от нее сбежал единственный муж и как она сейчас успевает сражаться на личном фронте сразу с двумя фаворитами?
Почему ее любовные похождения стали государственной тайной Украины и что грозит тем, кто знает подлинную историю Леди Ю?
Сэмпл: http://multi-up.com/968085
качество: DVB
формат: TS/M2TS
Видео: MPEG Video, аноморф. 704х576, 16:9, 1421 Кбит/сек, 25 fps
Аудио: MPEG Audio, 128 Кбит/сек, 48 КГц, 2 канала

MediaInfo

Общее
Идентификатор : 16 (0x10)
Полное имя : In Bed with Timoshenko.ts
Формат : MPEG-TS
Размер файла : 512 Мбайт
Продолжительность : 42 м.
Режим общего битрейта : Переменный
Общий поток : 1665 Кбит/сек
Видео
Идентификатор : 1807 (0x70F)
Идентификатор меню : 807 (0x327)
Формат : AVC
Формат/Информация : Advanced Video Codec
Профиль формата : Main@L3.0
Параметр CABAC формата : Да
Параметр ReFrames формата : 3 кадра
Идентификатор кодека : 27
Продолжительность : 42 м.
Битрейт : 1421 Кбит/сек
Ширина : 720 пикселей
Высота : 576 пикселей
Соотношение сторон : 4:3
Частота кадров : 25,000 кадров/сек
Стандарт вещания : PAL
Цветовое пространство : YUV
Субдискретизация насыщенности : 4:2:0
Битовая глубина : 8 бит
Тип развёртки : Чересстрочная
Порядок развёртки : Верхнее поле первое
Бит/(Пиксели*Кадры) : 0.137
Размер потока : 436 Мбайт (85%)
Основные цвета : BT.601 PAL
Характеристики трансфера : BT.470 System B, BT.470 System G
Коэффициенты матрицы : BT.601
Аудио
Идентификатор : 2807 (0xAF7)
Идентификатор меню : 807 (0x327)
Формат : MPEG Audio
Версия формата : Version 1
Профиль формата : Layer 2
Идентификатор кодека : 4
Продолжительность : 42 м.
Вид битрейта : Постоянный
Битрейт : 160 Кбит/сек
Каналы : 2 канала
Частота : 48,0 КГц
Метод сжатия : С потерями
Задержка видео : 3 мс.
Размер потока : 49,1 Мбайт (10%)
Язык : std
Язык, дополнительно : Clean effects

Скриншоты

[cybertorrent.ru].t1859.torrent 
Торрент: Зарегистрирован [ 2018-02-16 08:44 ] · 67419600E050A1869D9472718DDD1493A4E7B205

Скачать .torrent

Скачать

20 KB

Статус: проверено
Скачан: 0 раз
Размер: 512 MB
Профиль [ЛС]
Показать сообщения:    

Текущее время: 21-Май 20:37

Часовой пояс: UTC ± 0



Вы не можете начинать темы
Вы не можете отвечать на сообщения
Вы не можете редактировать свои сообщения
Вы не можете удалять свои сообщения
Вы не можете голосовать в опросах
Вы не можете прикреплять файлы к сообщениям
Вы можете скачивать файлы