Статистика раздачи
Размер:  3,19 GB   |    Зарегистрирован:  3 месяца 11 дней   |    Скачан:  0 раз

Полного источника не было: Никогда

 
   
 
 

koljan ®

Пол:
Не указан
Стаж:
3 месяца 12 дней
Сообщений:
472

Беар Гриллс: Испытание страхом / Bear Grylls: Breaking Point -Дата/Год выпуска: 2014
Страна: Великобритания
Жанр: ТВ-Шоу, Приключения
Продолжительность: ~00:43:00
Перевод: Профессиональный (многоголосый, закадровый) -
Русские субтитры: нет-Режиссер: Дэн Этеридж / Dan Etheridge-Описание: По статистике, примерно 13% населения планеты страдает фобиями – необъяснимой, патологической боязнью самых разных предметов или ситуаций, от вполне обыденного страха перед авиаперелетами до иррационального ужаса при виде пуговиц. В новой программе «Беар Гриллс: Испытание страхом» знаменитый специалист в области выживания приходит на помощь тем, кто хочет избавиться от фобии, но использует при этом весьма жесткие методы.
Беар Гриллс уверен, что страх лечится погружением в страх: он создает для своих подопечных их персональный ад и помогает им этот ад преодолеть. Конечно, он работает только с теми, кто знает, на что идет – избавиться от фобии можно только при условии, что человек хочет этого сам. Посмотрите на людей, которые делают самый смелый шаг в своей жизни и вступают в бой со своим самым большим кошмаром.-Релиз от: -Качество: HDTVRip [Сэмпл]
Формат: AVI
Видео: Xvid 720x400 30fps 8bit 1 530 Kbps
Аудио: Dolby AC3 48000Hz stereo 2ch 192kbps

Скриншоты

MediaInfo

Формат : AVI
Формат/Информация : Audio Video Interleave
Размер файла : 545 Мбайт
Продолжительность : 43 м.
Общий поток : 1734 Кбит/сек
Программа кодирования : VirtualDubMod 1.5.10.3 | www.virtualdub-fr.org || (build 2550/release)
Библиотека кодирования : VirtualDubMod build 2550/release
Видео
Идентификатор : 0
Формат : MPEG-4 Visual
Профиль формата : Advanced Simple@L5
Параметр BVOP формата : 1
Параметр QPel формата : Нет
Параметр GMC формата : Без точки перехода
Параметр матрицы формата : Default (H.263)
Идентификатор кодека : XVID
Идентификатор кодека/Подсказка : XviD
Продолжительность : 43 м.
Битрейт : 1530 Кбит/сек
Ширина : 720 пикселей
Высота : 400 пикселей
Соотношение сторон : 16:9
Частота кадров : 30,000 кадров/сек
Цветовое пространство : YUV
Субдискретизация насыщенности : 4:2:0
Битовая глубина : 8 бит
Тип развёртки : Прогрессивная
Метод сжатия : С потерями
Бит/(Пиксели*Кадры) : 0.177
Размер потока : 481 Мбайт (88%)
Библиотека кодирования : XviD 1.2.1 (UTC 2008-12-04)
Аудио
Идентификатор : 1
Формат : AC-3
Формат/Информация : Audio Coding 3
Расширение режима : CM (complete main)
Параметр Endianness формата : Big
Идентификатор кодека : 2000
Продолжительность : 43 м.
Вид битрейта : Постоянный
Битрейт : 192 Кбит/сек
Каналы : 2 канала
Расположение каналов : Front: L R
Частота : 48,0 КГц
Метод сжатия : С потерями
Размер потока : 60,4 Мбайт (11%)
Выравнивание : Разделение по промежуткам
Продолжительность промежутка : 33 мс. (1,00 видеокадр)
Время предзагрузки промежутка : 500 мс.
[cybertorrent.ru].t2353.torrent 
Торрент: Зарегистрирован [ 2018-02-16 11:35 ] · 6640AC5F2E868E0F14472C9BD9E508FA9C6AEF2A

Скачать .torrent

Скачать

17 KB

Статус: проверено
Скачан: 0 раз
Размер: 3,19 GB
Профиль [ЛС]
Показать сообщения:    

Текущее время: 27-Май 19:55

Часовой пояс: UTC ± 0



Вы не можете начинать темы
Вы не можете отвечать на сообщения
Вы не можете редактировать свои сообщения
Вы не можете удалять свои сообщения
Вы не можете голосовать в опросах
Вы не можете прикреплять файлы к сообщениям
Вы можете скачивать файлы