Статистика раздачи
Размер:  1,73 GB   |    Зарегистрирован:  3 месяца 8 дней   |    Скачан:  0 раз

Полного источника не было: Никогда

Личеров:  1  [  0 KB/s  ]  
 
   
 
 

FibYar ®

Пол:
Не указан
Стаж:
3 месяца 9 дней
Сообщений:
227

Запретные темы истории. Анатолия в глубине тысячелетий.
Дата/Год выпуска: 25.08.2015
Страна: Россия
Жанр: Документальный, альтернативная история
Продолжительность: 01:35:24
Перевод: Не требуется
Русские субтитры: нет
Оригинальная аудиодорожка: нет
Режиссер: Андрей Скляров
Описание: Археологические открытия на территории Турции все дальше и дальше уходят в глубь времени. Древние сооружения и артефакты, которые продолжают обнаруживаться и в настоящее время, постепенно заставляют пересматривать не только историю самого Анатолийского полуострова, но и его роль в общемировом историческом процессе. И это касается как "академической" точки зрения, так и альтернативного взгляда, учитывающего существование в древности высоко развитой в техническом отношении цивилизации - "цивилизации богов".
Фильм создан на базе материала, собранного в ходе экспедиций Лаборатории Альтернативной Истории в Турцию в августе 2012 года и в мае 2015 года.
Доп. информация: Фильм, является продолжением цикла "Запретные темы истории" за 2015й год.
качество: WebRip-AVC
формат: MP4
Видео: AVC; 720*576; 1.85:1; 2597kbps; 25fps
Аудио: AAC; 61.6 Kbps; 44.1 KHz; 2 channels

MediaInfo

General
Complete name : D:\Games\151\Анатолия в глубине тысячелетий.mp4
Format : MPEG-4
Format profile : Base Media / Version 2
Codec ID : mp42
File size : 1.73 GiB
Duration : 1h 35mn
Overall bit rate mode : Variable
Overall bit rate : 2 597 Kbps
Encoded date : UTC 2015-08-25 09:45:39
Tagged date : UTC 2015-08-25 09:45:39
©TIM : 00:00:00:00
©TSC : 25
©TSZ : 1
Video
ID : 1
Format : AVC
Format/Info : Advanced Video Codec
Format profile : Main@L3.1
Format settings, CABAC : Yes
Format settings, ReFrames : 3 frames
Codec ID : avc1
Codec ID/Info : Advanced Video Coding
Duration : 1h 35mn
Source duration : 1h 35mn
Bit rate : 2 522 Kbps
Width : 720 pixels
Height : 576 pixels
Display aspect ratio : 1.85:1
Frame rate mode : Constant
Frame rate : 25.000 fps
Standard : PAL
Color space : YUV
Chroma subsampling : 4:2:0
Bit depth : 8 bits
Scan type : Progressive
Bits/(Pixel*Frame) : 0.243
Stream size : 1.68 GiB (97%)
Source stream size : 1.68 GiB (97%)
Language : English
Encoded date : UTC 2015-08-25 09:45:39
Tagged date : UTC 2015-08-25 09:45:39
Color range : Limited
Audio
ID : 2
Format : AAC
Format/Info : Advanced Audio Codec
Format profile : LC
Codec ID : 40
Duration : 1h 35mn
Source duration : 1h 35mn
Bit rate mode : Variable
Bit rate : 61.6 Kbps
Maximum bit rate : 114 Kbps
Channel(s) : 2 channels
Channel positions : Front: L R
Sampling rate : 44.1 KHz
Compression mode : Lossy
Stream size : 42.0 MiB (2%)
Source stream size : 42.0 MiB (2%)
Language : English
Encoded date : UTC 2015-08-25 09:45:39
Tagged date : UTC 2015-08-25 09:45:39

Скриншоты

[
[cybertorrent.ru].t2421.torrent 
Торрент: Зарегистрирован [ 2018-02-16 11:35 ] · DA26660568462D94F67C2222064E9BD98B2112C8

Скачать .torrent

Скачать

18 KB

Статус: проверено
Скачан: 0 раз
Размер: 1,73 GB
Профиль [ЛС]
Показать сообщения:    

Текущее время: 24-Май 19:31

Часовой пояс: UTC ± 0



Вы не можете начинать темы
Вы не можете отвечать на сообщения
Вы не можете редактировать свои сообщения
Вы не можете удалять свои сообщения
Вы не можете голосовать в опросах
Вы не можете прикреплять файлы к сообщениям
Вы можете скачивать файлы