Статистика раздачи
Размер:  3,92 GB   |    Зарегистрирован:  5 месяцев 26 дней   |    Скачан:  0 раз

Полного источника не было: Никогда

 
   
 
 

Zima ®

Пол:
Не указан
Стаж:
5 месяцев 27 дней
Сообщений:
42

Иван Царевич и Серый Волк 3
Страна: Россия
Жанр: фэнтези, комедия, кинокомедия
Продолжительность: 1:17:06
Год выпуска: 2015
Перевод: Не требуется
Русские субтитры: нет-Режиссёр: Дарина Шмидт
Роли озвучивали:
Никита Ефремов - Иван Царевич
Иван Охлобыстин - Царь
Михаил Боярский - Кот
Александр Боярский - Волк
Татьяна Бунина - Василиса
Михаил Хрусталев - Пугало Пал Палыч
Дмитрий Высоцкий - Тонкий
Олег Куликович - Толстый
Анатолий Петров - Соловей
Роман Никитин - Кеша
Константин Бронзит - Щука-Описание: Царь Тридевятого царства, в честь своего 150-летия решил, что с него хватит — пора на заслуженный отдых. «Я устал. Я ухожу», — заявил самодержец и с удочкой и ведёрком удалился в деревенскую глушь. А оберегать государство остались Иван с Серым Волком. Вот только Василиса, жена Ивана, заявила, что свадебного путешествия у неё не было, заграницу она не видела, «постить» в инстаграм решительно нечего и вообще.
Иван спорить не стал, а вместе с Василисой, Котом — ученым и Серым Волком, погрузился на ковер-самолет и отправился в путь. А за главного в стране герои оставили самое обычное огородное пугало… Но пока компания шаталась по Миланам и Парижам, Пугало ожило и начало наводить свои порядки в Тридевятом царстве…-Качество: BDRip 1080p
Формат: MKV
Видео: MPEG4 Video (H264), 1920x1080, 24fps, 5777 Kbps
Аудио: DTS, 48000Hz, 6ch, 1536kbps
Субтитры: отсутствуют

Подробные технические данные

General
Unique ID : 241455616512271788810025259154140417098 (0xB5A6A90366ADEC05BE48286F73C5CC4A)
Complete name : D:\Downloads\Иван царевич и серый волк 3 BDRip.mkv
Format : Matroska
Format version : Version 4 / Version 2
File size : 3.92 GiB
Duration : 1h 17mn
Overall bit rate : 7 269 Kbps
Movie name : Иван Царевич и Серый Волк 3.2015.Rip by: ollan
Encoded date : UTC 2016-03-25 08:24:44
Writing application : mkvmerge v8.9.0 ('Father Daughter') 64bit
Writing library : libebml v1.3.3 + libmatroska v1.4.4
DURATION : 01:17:06.678000000
NUMBER_OF_FRAMES : 433751
NUMBER_OF_BYTES : 873140763
_STATISTICS_WRITING_APP : mkvmerge v8.9.0 ('Father Daughter') 64bit
_STATISTICS_WRITING_DATE_UTC : 2016-03-25 08:24:44
_STATISTICS_TAGS : BPS DURATION NUMBER_OF_FRAMES NUMBER_OF_BYTES
Video
ID : 1
Format : AVC
Format/Info : Advanced Video Codec
Format profile : High@L4.1
Format settings, CABAC : Yes
Format settings, ReFrames : 4 frames
Codec ID : V_MPEG4/ISO/AVC
Duration : 1h 17mn
Bit rate : 5 777 Kbps
Width : 1 920 pixels
Height : 1 080 pixels
Display aspect ratio : 16:9
Frame rate mode : Constant
Frame rate : 24.000 fps
Color space : YUV
Chroma subsampling : 4:2:0
Bit depth : 8 bits
Scan type : Progressive
Bits/(Pixel*Frame) : 0.116
Stream size : 3.02 GiB (77%)
Writing library : x264 core 125 r2200 999b753
Encoding settings : cabac=1 / ref=4 / deblock=1:-3:-3 / analyse=0x3:0x133 / me=umh / subme=11 / psy=1 / psy_rd=1.00:0.05 / mixed_ref=1 / me_range=32 / chroma_me=1 / trellis=2 / 8x8dct=1 / cqm=0 / deadzone=21,11 / fast_pskip=0 / chroma_qp_offset=-3 / threads=12 / lookahead_threads=2 / sliced_threads=0 / nr=0 / decimate=0 / interlaced=0 / bluray_compat=0 / constrained_intra=0 / bframes=9 / b_pyramid=2 / b_adapt=2 / b_bias=0 / direct=3 / weightb=1 / open_gop=0 / weightp=2 / keyint=240 / keyint_min=23 / scenecut=40 / intra_refresh=0 / rc=2pass / mbtree=0 / bitrate=5777 / ratetol=1.0 / qcomp=0.60 / qpmin=0 / qpmax=69 / qpstep=4 / cplxblur=20.0 / qblur=0.5 / ip_ratio=1.40 / pb_ratio=1.30 / aq=1:1.00
Language : Russian
Default : Yes
Forced : No
DURATION : 01:17:06.712000000
NUMBER_OF_FRAMES : 111041
NUMBER_OF_BYTES : 3329746270
_STATISTICS_WRITING_APP : mkvmerge v8.9.0 ('Father Daughter') 64bit
_STATISTICS_WRITING_DATE_UTC : 2016-03-25 08:24:44
_STATISTICS_TAGS : BPS DURATION NUMBER_OF_FRAMES NUMBER_OF_BYTES
Audio
ID : 2
Format : DTS
Format/Info : Digital Theater Systems
Mode : 16
Format settings, Endianness : Big
Codec ID : A_DTS
Duration : 1h 17mn
Bit rate mode : Constant
Bit rate : 1 510 Kbps
Channel(s) : 6 channels
Channel positions : Front: L C R, Side: L R, LFE
Sampling rate : 48.0 KHz
Bit depth : 24 bits
Compression mode : Lossy
Stream size : 833 MiB (21%)
Language : Russian
Default : No
Forced : No
Menu
00:00:00.000 : ru:Chapter 01
00:06:37.958 : ru:Chapter 02
00:10:39.375 : ru:Chapter 03
00:15:50.083 : ru:Chapter 04
00:23:38.666 : ru:Chapter 05
00:31:42.041 : ru:Chapter 06
00:37:36.666 : ru:Chapter 07
00:43:48.208 : ru:Chapter 08
00:51:43.583 : ru:Chapter 09
00:55:48.708 : ru:Chapter 10
01:01:21.250 : ru:Chapter 11
01:11:35.625 : ru:Chapter 12
01:17:06.666 : ru:Chapter 13

Скриншоты

[cybertorrent.ru].t2624.torrent 
Торрент: Зарегистрирован [ 2018-02-16 14:35 ] · 60AFD2943DF6B718AB2E3CB6BD8BAE27262744FE

Скачать .torrent

Скачать

20 KB

Статус: проверено
Скачан: 0 раз
Размер: 3,92 GB
Профиль [ЛС]
Показать сообщения:    

Текущее время: 15-Авг 00:55

Часовой пояс: UTC ± 0



Вы не можете начинать темы
Вы не можете отвечать на сообщения
Вы не можете редактировать свои сообщения
Вы не можете удалять свои сообщения
Вы не можете голосовать в опросах
Вы не можете прикреплять файлы к сообщениям
Вы можете скачивать файлы
Torrents24.ru открытый BitTorrent Torrents24.pl открытый BitTorrent CyberTorrent.ru открытый BitTorrent BtList.ru рейтинг BitTorrent трекеров Яндекс.Метрика