Статистика раздачи
Размер:  1,49 GB   |    Зарегистрирован:  3 месяца 11 дней   |    Скачан:  0 раз

Полного источника не было: Никогда

 
   
 
 

morzy ®

Пол:
Не указан
Стаж:
3 месяца 12 дней
Сообщений:
284

Крид: Наследие Рокки
Creed
«Your legacy is more than a name»
Страна: США
Жанр: драма, спорт
Год выпуска: 2015
Продолжительность: 02:13:10
Перевод: Профессиональный (полное дублирование) [Blu-ray CEE]
Субтитры: русские (форсированные, полные)
Оригинальная аудиодорожка: нет
Режиссер: Райан Куглер / Ryan Coogler
В ролях: Майкл Б. Джордан, Сильвестр Сталлоне, Тесса Томпсон, Филисия Рашад, Андре Уорд, Тони Белью, Ричи Костер, Джейкоб ’Стич’ Дюран, Грэм МакТавиш, Malik Bazille, Рикардо МакГилл, Габриэль Росадо
Описание:
В центре внимания сын Аполло Крида - первого серьезного соперника Рокки Бальбоа на ринге, впоследствии ставшего лучшим другом героя. Талант отца в какой-то момент проявляется и в Криде-младшем, и юноша отправляется на поиски наставника, коим для него в итоге становится постаревший Рокки, тоже не слишком жаждущий возвращаться к старым делам. Даже в качестве тренера.

Автор рипа: stalkerok
Сэмпл
Качество видео: BDRip-AVC [HDCLUB / Blu-ray Remux / 1080p]
Формат видео: MKV
Видео: 1373 Кбит/сек, 960x400 (2.40:1), 23,976 кадр/сек, AVC
Аудио: русский, 230 Кбит/сек, 48,0 КГц, 6 каналов, AAC (LC)
Навигация по главам: есть

x264/MediaInfo

Лог утерян.
General
Unique ID : 185236980271583974956480883500391766395 (0x8B5B583EFFC9EF639C5AF4E14862997B)
Complete name : M:\!!!!!!Rips\Creed\Creed.2015.BDRip-AVC.RUS.stalkerok.new-team.mkv
Format : Matroska
Format version : Version 4 / Version 2
File size : 1.49 GiB
Duration : 2 h 13 min
Overall bit rate : 1 598 kb/s
Movie name : Creed (2015) (Rip by stalkerok)
Encoded date : UTC 2018-01-24 14:53:48
Writing application : mkvmerge v8.6.1 ('Flying') 64bit
Writing library : libebml v1.3.3 + libmatroska v1.4.4
Video
ID : 1
Format : AVC
Format/Info : Advanced Video Codec
Format profile : High@L4.1
Format settings, CABAC : Yes
Format settings, ReFrames : 14 frames
Codec ID : V_MPEG4/ISO/AVC
Duration : 2 h 13 min
Bit rate : 1 373 kb/s
Width : 960 pixels
Height : 400 pixels
Display aspect ratio : 2.40:1
Frame rate mode : Constant
Frame rate : 23.976 (24000/1001) FPS
Color space : YUV
Chroma subsampling : 4:2:0
Bit depth : 8 bits
Scan type : Progressive
Bits/(Pixel*Frame) : 0.149
Stream size : 1.27 GiB (85%)
Title : Creed (2015) (Rip by stalkerok)
Writing library : x264 core 148 r2665kMod a01e339
Encoding settings : cabac=1 / ref=14 / deblock=1:-3:-2 / analyse=0x3:0x133 / me=umh / subme=11 / psy=1 / fade_compensate=0.00 / psy_rd=1.00:0.05 / mixed_ref=1 / me_range=48 / chroma_me=1 / trellis=2 / 8x8dct=1 / cqm=0 / deadzone=21,11 / fast_pskip=0 / chroma_qp_offset=-3 / threads=12 / lookahead_threads=3 / sliced_threads=0 / nr=0 / decimate=0 / interlaced=0 / bluray_compat=0 / constrained_intra=0 / fgo=0 / bframes=15 / b_pyramid=2 / b_adapt=2 / b_bias=0 / direct=3 / weightb=1 / open_gop=0 / weightp=2 / keyint=240 / keyint_min=23 / scenecut=40 / intra_refresh=0 / rc_lookahead=60 / rc=2pass / mbtree=0 / bitrate=1373 / ratetol=1.0 / qcomp=0.70 / qpmin=0 / qpmax=69 / qpstep=4 / cplxblur=20.0 / qblur=0.5 / vbv_maxrate=50000 / vbv_bufsize=62500 / nal_hrd=none / filler=0 / ip_ratio=1.40 / pb_ratio=1.30 / aq=3:0.85
Default : Yes
Forced : No
Audio
ID : 2
Format : AAC
Format/Info : Advanced Audio Codec
Format profile : LC
Codec ID : A_AAC
Duration : 2 h 13 min
Bit rate : 230 kb/s
Channel(s) : 6 channels
Channel positions : Front: L C R, Side: L R, LFE
Sampling rate : 48.0 kHz
Frame rate : 46.875 FPS (1024 spf)
Compression mode : Lossy
Delay relative to video : 9 ms
Stream size : 219 MiB (14%)
Language : Russian
Default : Yes
Forced : No
Text #1
ID : 3
Format : UTF-8
Codec ID : S_TEXT/UTF8
Codec ID/Info : UTF-8 Plain Text
Duration : 2 h 7 min
Bit rate : 3 b/s
Count of elements : 79
Stream size : 3.69 KiB (0%)
Title : Forced, iTunes
Language : Russian
Default : Yes
Forced : No
Text #2
ID : 4
Format : UTF-8
Codec ID : S_TEXT/UTF8
Codec ID/Info : UTF-8 Plain Text
Duration : 2 h 12 min
Bit rate : 105 b/s
Count of elements : 2175
Stream size : 102 KiB (0%)
Language : Russian
Default : No
Forced : No
Menu
00:00:00.000 : en:Chapter 1
00:09:14.386 : en:Chapter 2
00:22:06.741 : en:Chapter 3
00:31:31.931 : en:Chapter 4
00:41:34.657 : en:Chapter 5
00:52:18.009 : en:Chapter 6
01:01:32.063 : en:Chapter 7
01:09:13.939 : en:Chapter 8
01:19:00.985 : en:Chapter 9
01:25:13.649 : en:Chapter 10
01:32:27.792 : en:Chapter 11
01:41:16.444 : en:Chapter 12
01:50:14.440 : en:Chapter 13
02:01:07.717 : en:Chapter 14
02:06:34.962 : en:Chapter 15

Скриншоты

[cybertorrent.ru].t2681.torrent 
Торрент: Зарегистрирован [ 2018-02-16 14:35 ] · 8C4BDF8E03F5AEDC6782CAE1737999AE6F908ECC

Скачать .torrent

Скачать

16 KB

Статус: проверено
Скачан: 0 раз
Размер: 1,49 GB
Профиль [ЛС]
Показать сообщения:    

Текущее время: 27-Май 19:54

Часовой пояс: UTC ± 0



Вы не можете начинать темы
Вы не можете отвечать на сообщения
Вы не можете редактировать свои сообщения
Вы не можете удалять свои сообщения
Вы не можете голосовать в опросах
Вы не можете прикреплять файлы к сообщениям
Вы можете скачивать файлы