Статистика раздачи
Размер:  5,07 GB   |    Зарегистрирован:  3 месяца 5 дней   |    Скачан:  0 раз

Полного источника не было: Никогда

Личеров:  6  [  0 KB/s  ]  
 
   
 
 

Red ®

Пол:
Не указан
Стаж:
3 месяца 6 дней
Сообщений:
245

Новый Comedy Club
Дата/Год выпуска: 12.05.2017
Страна: Россия
Жанр: Юмор
Продолжительность: 00:48:16
Перевод: Не требуется
Русские субтитры: нет
Режиссер: Ксения Чашей, Дмитрий Ефимович, Роман Новиков, Гарик Мартиросян
Телеканал: ТНТ
Описание: На ТНТ стартует новый сезон Comedy Club. Отныне каждый выпуск шоу будет посвящен определенной тематике: мир моды и кино, День космонавтики, 1 апреля, 8 марта и даже выпуск целиком посвященный дню рождения одного из резидентов. Не пропусти! Самое популярное комедийное шоу на российском телевидении возвращается с абсолютно новой программой.
Качество: HDTV 1080i
Формат: TS
Видео: AVC, 1920x1080 (16:9), 25.000 fps, 14.1 Mbps (0.272 bit/pixel)
Аудио: MP2, 48.0 KHz, 2 ch, 192 Kbps, CBR

Список выпусков/серий

Выпуск №537

MediaInfo

Общее
Идентификатор : 1 (0x1)(2017.05.12)_1080.ts
Формат : MPEG-TS
Размер файла : 5,07 Гбайт
Продолжительность : 48 м.
Режим общего битрейта : Переменный
Общий поток : 15,0 Мбит/сек
Видео
Идентификатор : 207 (0xCF)
Идентификатор меню : 2207 (0x89F)
Формат : AVC
Формат/Информация : Advanced Video Codec
Профиль формата : High@L4.0
Параметр CABAC формата : Да
Параметр ReFrames формата : 4 кадра
Идентификатор кодека : 27
Продолжительность : 48 м.
Битрейт : 14,1 Мбит/сек
Ширина : 1920 пикселей
Высота : 1080 пикселей
Соотношение сторон : 16:9
Частота кадров : 25,000 кадров/сек
Стандарт вещания : Component
Цветовое пространство : YUV
Субдискретизация насыщенности : 4:2:0
Битовая глубина : 8 бит
Тип развёртки : Чересстрочная
Порядок развёртки : Верхнее поле первое
Бит/(Пиксели*Кадры) : 0.272
Размер потока : 4,75 Гбайт (94%)
Основные цвета : BT.709
Характеристики трансфера : BT.709
Коэффициенты матрицы : BT.709
Аудио
Идентификатор : 307 (0x133)
Идентификатор меню : 2207 (0x89F)
Формат : MPEG Audio
Версия формата : Version 1
Профиль формата : Layer 2
Идентификатор кодека : 3
Продолжительность : 48 м.
Вид битрейта : Постоянный
Битрейт : 192 Кбит/сек
Каналы : 2 канала
Частота : 48,0 КГц
Метод сжатия : С потерями
Размер потока : 66,3 Мбайт (1%)
Язык : Russian

Скриншоты

[cybertorrent.ru].t3272.torrent 
Торрент: Зарегистрирован [ 2018-02-16 17:30 ] · BAA31F7F9E3A02A85E91CA463B649BC9B0145271

Скачать .torrent

Скачать

26 KB

Статус: проверено
Скачан: 0 раз
Размер: 5,07 GB
Профиль [ЛС]
Показать сообщения:    

Текущее время: 21-Май 20:37

Часовой пояс: UTC ± 0



Вы не можете начинать темы
Вы не можете отвечать на сообщения
Вы не можете редактировать свои сообщения
Вы не можете удалять свои сообщения
Вы не можете голосовать в опросах
Вы не можете прикреплять файлы к сообщениям
Вы можете скачивать файлы