Статистика раздачи
Размер:  872 MB   |    Зарегистрирован:  5 дней   |    Скачан:  0 раз

Полного источника не было: Никогда

Личеров:  6  [  0 KB/s  ]   Подробная статистика пиров
 
   
 
 

deltacatsplus ®

Пол:
Не указан
Стаж:
7 дней
Сообщений:
213

Клуб юмора. Выпуск 13 (Эфир от 29.07.2017) Страна: Россия
Жанр: Ток-шоу, Юмор , Музыка
Продолжительность: 00:35:03
Язык: Русский
Год выпуска: 2011 г.
Выпущено: Россия, АО «Телекомпания „ТВ Центр“».
Описание: Участниками юмористической программы становятся звезды и молодые артисты, работающие в разных жанрах. Это музыканты, юмористы, певцы, актеры театра. Всех участников телешоу «Клуб юмора» объединяет одно — прекрасное чувство юмора. Собравшиеся за столиками зрители могут услышать веселые скетчи и музыкальные номера. Артисты всегда готовы к импровизациям: в передаче звучат анекдоты и забавные истории из жизни.-Ведущий: Андрей Носков.-Треклист:
01. Карен Аванесян - «Просто замечательно» (автор - Г. Териков);
02. Группа «Сливки» - «Иногда» (муз. и сл. - К. Кокс, А. Пушкарёв, А. Аваков);
03. Андрей Баринов - Музыкальные пародии (автор - А. Баринов);
04. Александр Филиппенко - «Про молодость» (автор - М. Жванецкий);
05. А'капелла Экспресс - «Тополя» (муз. - Г. Пономаренко, сл. - Г. Колесников);
06. Виктор Коклюшкин - «Розыгрыш» (автор - В. Коклюшкин);
07. Витас - «Берега России» (муз. - А. Клевицкий, сл. - Н. Денисов);
08. Лион Измайлов - «Любимый юмор» (автор - Л. Измайлов);
09. Сосо Павлиашвили - «Только ты» (муз. - С. Павлиашвили, сл. - Г. Карапетян).
-Источник: Собственный рип
Доп. информация: Рип чистый. Без посторонних надписей. Выкладывается как есть.

Качество: DVB
Контейнер: TS
Видео кодек: H.264
Аудио кодек: MP2
Видео: MPEG2 Video, 720x576 (4:3) 25.00fps, 3 112 Kbps, 0.300 bit/pixel
Аудио: MPEG Audio 48000Hz stereo 192 Кбит/сек

Отчёт MediaInfo

Общее
Идентификатор : 1 (0x1)
Полное имя : G:\Раздачи\Программы, передачи, шоу, спектакли\Клуб Юмора\Клуб юмора. Выпуск 13 (2011, DVB, Эфир от 29.07.2017) (by Nokia5150).ts
Формат : MPEG-TS
Размер файла : 872 Мбайт
Продолжительность : 35 м.
Режим общего битрейта : Переменный
Общий поток : 3477 Кбит/сек
Видео
Идентификатор : 2612 (0xA34)
Идентификатор меню : 612 (0x264)
Формат : MPEG Video
Версия формата : Version 2
Профиль формата : Main@Main
Параметр BVOP формата : Да
Параметр матрицы формата : Выборочная
Параметр GOP формата : Variable
Format_Settings_PictureStructure : Frame
Идентификатор кодека : 2
Продолжительность : 35 м.
Битрейт : 3112 Кбит/сек
Максимальный битрейт : 3150 Кбит/сек
Ширина : 720 пикселей
Высота : 576 пикселей
Соотношение сторон : 4:3
Частота кадров : 25,000 кадров/сек
Стандарт вещания : PAL
Цветовое пространство : YUV
Субдискретизация насыщенности : 4:2:0
Битовая глубина : 8 бит
Тип развёртки : Чересстрочная
Порядок развёртки : Верхнее поле первое
Метод сжатия : С потерями
Бит/(Пиксели*Кадры) : 0.300
Временной код первого кадра : 00:00:00:00
Оригинал временного кода : Group of pictures header
Размер потока : 780 Мбайт (89%)
Аудио
Идентификатор : 3612 (0xE1C)
Идентификатор меню : 612 (0x264)
Формат : MPEG Audio
Версия формата : Version 1
Профиль формата : Layer 2
Идентификатор кодека : 3
Продолжительность : 35 м.
Вид битрейта : Постоянный
Битрейт : 192 Кбит/сек
Каналы : 2 канала
Частота : 48,0 КГц
Метод сжатия : С потерями
Задержка видео : 7 мс.
Размер потока : 48,1 Мбайт (6%)
Язык : Russian

Скриншоты

Скринлист


[cybertorrent.ru].t3426.torrent 
Торрент: Зарегистрирован [ 2018-02-16 20:18 ] · 180A49B934DFE3AA322CF668833CB65FBF80B940

Скачать .torrent

Скачать

18 KB

Статус: проверено
Скачан: 0 раз
Размер: 872 MB
terms.php
Профиль [ЛС]
Показать сообщения:    

Текущее время: 22-Фев 18:47

Часовой пояс: UTC ± 0



Вы не можете начинать темы
Вы не можете отвечать на сообщения
Вы не можете редактировать свои сообщения
Вы не можете удалять свои сообщения
Вы не можете голосовать в опросах
Вы не можете прикреплять файлы к сообщениям
Вы можете скачивать файлы