Статистика раздачи
Размер:  175 MB   |    Зарегистрирован:  3 месяца 10 дней   |    Скачан:  0 раз

Полного источника не было: Никогда

Личеров:  1  [  0 KB/s  ]  
 
   
 
 

NINJA ®

Пол:
Не указан
Стаж:
3 месяца 12 дней
Сообщений:
264

У Джона Бенджамина есть фургон / Jon Benjamin Has a Van
Дата/Год выпуска: 2011
Страна: США
Жанр: Комедия
Продолжительность: 00:21:37
Перевод: Субтитры
Доп. инфо о переводе: shmoscar
Русские субтитры: есть
Формат субтитров: *srt (внешние)
Оригинальная аудиодорожка: английский
Режиссер: Бен Берман, Лео Аллен, Джон Ли, Джейсон Уолинер
Телеканал: Comedy Central
Описание: У Джона Бенджамина есть фургон - американский комедийный сериал, в главной роли корреспондента Джон Бенджамин (Арчер, Доктор Катц, Домашнее видео) разъезжает в своём фургончике, рассказывает забавные новости и разыгрывает людей на улицах.
Сэмпл: https://yadi.sk/i/wxVD_A4-3PXaXh
качество: WEBRip
формат: MP4
Видео: Xvid 624x352 29.97fps 996kbps [V: mpeg4 advanced simple profile, yuv420p, 624x352, 996 kb/
Аудио: MP3 48000Hz stereo 154kbps [A: mp3, 48000 Hz, stereo, 154 kb/s]

Список выпусков/серий

1х10 Smoking

MediaInfo

General
Complete name : C:\Users\Bender Rodriguez\Desktop\U_Dzhona_Bendzhamina_Est_Furgon_-_Kurenie.avi
Format : AVI
Format/Info : Audio Video Interleave
File size : 175 MiB
Duration : 21 min 0 s
Overall bit rate mode : Variable
Overall bit rate : 1 165 kb/s
Writing application : Some super fast AVI muxer
Video
ID : 0
Format : MPEG-4 Visual
Format profile : Advanced Simple@L5
Format settings, BVOP : 2
Format settings, QPel : No
Format settings, GMC : No warppoints
Format settings, Matrix : Default (H.263)
Codec ID : XVID
Codec ID/Hint : XviD
Duration : 21 min 0 s
Bit rate : 996 kb/s
Width : 624 pixels
Height : 352 pixels
Display aspect ratio : 16:9
Frame rate : 29.970 (30000/1001) FPS
Original frame rate : 29.970 (29970/1000) FPS
Color space : YUV
Chroma subsampling : 4:2:0
Bit depth : 8 bits
Scan type : Progressive
Compression mode : Lossy
Bits/(Pixel*Frame) : 0.151
Stream size : 150 MiB (86%)
Writing library : XviD 70
Audio
ID : 1
Format : MPEG Audio
Format version : Version 1
Format profile : Layer 3
Codec ID : 55
Codec ID/Hint : MP3
Duration : 21 min 0 s
Bit rate mode : Variable
Bit rate : 155 kb/s
Channel(s) : 2 channels
Sampling rate : 48.0 kHz
Compression mode : Lossy
Stream size : 23.2 MiB (13%)
Alignment : Aligned on interleaves
Interleave, duration : 24 ms (0.72 video frame)
Interleave, preload duratio : 39 ms

Скриншоты



[cybertorrent.ru].t3639.torrent 
Торрент: Зарегистрирован [ 2018-02-16 23:01 ] · C01E073CE6ABE1DB927A1D0CF058E5C7F47614D5

Скачать .torrent

Скачать

14 KB

Статус: проверено
Скачан: 0 раз
Размер: 175 MB
Профиль [ЛС]
Показать сообщения:    

Текущее время: 27-Май 19:55

Часовой пояс: UTC ± 0



Вы не можете начинать темы
Вы не можете отвечать на сообщения
Вы не можете редактировать свои сообщения
Вы не можете удалять свои сообщения
Вы не можете голосовать в опросах
Вы не можете прикреплять файлы к сообщениям
Вы можете скачивать файлы