Статистика раздачи
Размер:  348 MB   |    Зарегистрирован:  3 месяца 7 дней   |    Скачан:  0 раз

Полного источника не было: Никогда

Личеров:  1  [  0 KB/s  ]  
 
   
 
 

kersti ®

Пол:
Не указан
Стаж:
3 месяца 9 дней
Сообщений:
252

История эльфа: Эльф на полке
An Elf's Story: The Elf on the Shelf
Страна: США
Жанр: мультфильм, семейный
Продолжительность: 00:22:57
Год выпуска: 2011
Перевод: Профессиональный (двухголосый закадровый)
Субтитры: отсутствуют-Режиссёр: Чад Эйкхофф: Chad Eikhoff
В ролях: Брендан Дулинг, Эви Эйкхофф, Эмма Грин, Татьяна Гай, Майкл Мэй, Шамеик Мур...-О фильме: О новогодних приключениях маленького эльфа, который помог взрослеющему мальчику Тейлору вернуть утраченную веру в Деда Мороза и магию Рождества.-
Семпл: https://www.sendspace.com/file/ck7uzq-Качество: SATRip [ASTANA TV] (эфир 06.01.2018)
Формат: AVI
Видео: XviD 67, 720х400 (16:9), 25 fps, ~1918 kbps, 0.266 bit/pixel
Аудио: [RUS] 48 kHz, MP2, 2 ch, 192 kbps

Mediainfo

Общее
Полное имя : F:\История Эльфа. Эльф на полке (2011) [ASTANA TV].avi
Формат : AVI
Формат/Информация : Audio Video Interleave
Размер файла : 348 Мбайт
Продолжительность : 22 м. 56 с.
Общий поток : 2120 Кбит/сек
Программа кодирования : VirtualDubMod 1.5.10.2 (build 2540/release)
Библиотека кодирования : VirtualDubMod build 2540/release
Видео
Идентификатор : 0
Формат : MPEG-4 Visual
Профиль формата : Advanced Simple@L5
Параметр BVOP формата : 2
Параметр QPel формата : Нет
Параметр GMC формата : Без точки перехода
Параметр матрицы формата : Default (H.263)
Идентификатор кодека : XVID
Идентификатор кодека/Подсказка : XviD
Продолжительность : 22 м. 56 с.
Битрейт : 1918 Кбит/сек
Ширина : 720 пикселей
Высота : 400 пикселей
Соотношение сторон : 16:9
Частота кадров : 25,000 кадров/сек
Цветовое пространство : YUV
Субдискретизация насыщенности : 4:2:0
Битовая глубина : 8 бит
Тип развёртки : Прогрессивная
Метод сжатия : С потерями
Бит/(Пиксели*Кадры) : 0.266
Размер потока : 315 Мбайт (90%)
Библиотека кодирования : XviD 67
Аудио
Идентификатор : 1
Формат : MPEG Audio
Версия формата : Version 1
Профиль формата : Layer 2
Идентификатор кодека : 50
Продолжительность : 22 м. 56 с.
Вид битрейта : Постоянный
Битрейт : 192 Кбит/сек
Каналы : 2 канала
Частота : 48,0 КГц
Метод сжатия : С потерями
Размер потока : 31,5 Мбайт (9%)
Выравнивание : Соединение по промежуткам
Продолжительность промежутка : 40 мс. (1,00 видеокадр)
Время предзагрузки промежутка : 504 мс.

Скриншоты

[cybertorrent.ru].t4361.torrent 
Торрент: Зарегистрирован [ 2018-02-17 04:38 ] · BC0DF0137DCABC80C988514975C4581A33DC19AD

Скачать .torrent

Скачать

14 KB

Статус: проверено
Скачан: 0 раз
Размер: 348 MB
Профиль [ЛС]
Показать сообщения:    

Текущее время: 24-Май 19:31

Часовой пояс: UTC ± 0



Вы не можете начинать темы
Вы не можете отвечать на сообщения
Вы не можете редактировать свои сообщения
Вы не можете удалять свои сообщения
Вы не можете голосовать в опросах
Вы не можете прикреплять файлы к сообщениям
Вы можете скачивать файлы