Статистика раздачи
Размер:  2,14 GB   |    Зарегистрирован:  3 месяца 7 дней   |    Скачан:  0 раз

Полного источника не было: Никогда

 
   
 
 

morzy ®

Пол:
Не указан
Стаж:
3 месяца 9 дней
Сообщений:
284

Людоедское счастье
Au bonheur des ogres- Страна: Франция
Жанр: трагикомедия, детектив, экранизация
Год выпуска: 2013
Продолжительность: 01:32:50Перевод: Субтитры (русский перевод М.Кузиной, Eclair Media)
Субтитры: русские, английские, французские, немецкие, нидерландские
Оригинальная аудиодорожка: французский
Режиссер: Николя Бари / Nicolas Bary
В ролях: Рафаэль Персоннас / Raphaël Personnaz (Benjamin Malaussène), Беренис Бежо / Bérénice Bejo (Tante Julia), Гийом де Тонкедек / Guillaume de Tonquédec (Sainclair), Тьерри Нёвик / Thierry Neuvic (Inspecteur Carrega), Эмир Кустурица / Emir Kusturica (Stojil), Софи-Шарлотт Юссон / Sophie-Charlotte Husson (La mère d'Arthur), Изабель Юппер / Isabelle Huppert (L'éditrice)
Описание: по одноименному роману Даниэля Пеннака / Daniel Pennac (1985).
Бенжамен Малуссен, рассеянный молодой человек с голубыми глазами, любит мечтать, и одевается не по моде. У него довольно редкая и специфическая профессия — Бен работает "козлом отпущения" в одном из самых престижных универмагов Парижа. В его обязанности входит выслушивать претензии недовольных клиентов, а также принимать от них жалобы. Но когда в универмаге происходят несколько происшествий, первым под подозрением оказывается Бен. Он решает провести свое собственное расследование, помогать ему в котором берется симпатичная журналистка Джулия.
Доп. информация: Hot Bird (13.0°E) TV5MONDE Europe DVB-S
Участник: Festival du Film Francais d'Helvetie - Bienne 2013; Festival International du Film de Rome 2013; Rendez-vous du cinema francais a Paris 2014; Festa do Cinema Frances 2014.
Качество видео: DVB
Формат видео: MKV
Видео: MPEG Video 2, 720x576@1024x576 (16:9), 25 fps, ~3042 kbps avg, 0.293 bit/pixel
Аудио: MPEG Audio 2, 2 ch, 48 kHz, 192 kbps - французский
Формат субтитров: softsub (SRT)

Пример субтитров

1
00:01:15,957 --> 00:01:19,082
Парижское счастье
2
00:01:42,274 --> 00:01:45,524
ЛЮДОЕДСКОЕ СЧАСТЬЕ
3
00:01:56,960 --> 00:02:00,085
Можете открывать.
4
00:02:09,481 --> 00:02:14,838
Добро пожаловать в магазин "Парижское
счастье". Предлагаем новинки.
5
00:02:14,838 --> 00:02:17,463
Здравствуйте!
6
00:02:20,351 --> 00:02:27,976
Детей в магазине "Парижское счастье"
ждет Дед Мороз.
7
00:02:32,924 --> 00:02:34,924
Поехали!
8
00:02:39,807 --> 00:02:40,994
С картой магазина
9
00:02:40,994 --> 00:02:48,369
вы можете оплатить
купленный товар через 3 месяца.
10
00:02:48,805 --> 00:02:50,355
Кража в отделе кашмира.
11
00:02:50,355 --> 00:02:53,605
Окей. Я разберусь.
12
00:02:58,121 --> 00:03:00,871
-Мадам.
-Что?
13
00:03:01,593 --> 00:03:03,394
Я шла в кассу.
14
00:03:03,394 --> 00:03:05,479
Это не то,
что вы думаете.
15
00:03:05,479 --> 00:03:09,229
Мы можем договориться.
16
00:03:14,559 --> 00:03:15,989
Привет, Малоссен.
17
00:03:15,989 --> 00:03:20,989
Но...
Куда вы меня ведете? Нет!
18
00:03:21,362 --> 00:03:22,443
Зачем это?
19
00:03:22,443 --> 00:03:27,523
-Чтобы было веселее.
-Весельем тут я заведую.
20
00:03:27,523 --> 00:03:31,074
Цвет бедра испуганной нимфы.

MediaInfo

General
Unique ID : 132159407932356344038990725318846144450 (0x636CF9E2CCC3FC3F99C00B0DEFA75FC2)
Complete name : [apreder]Au_bonheur_des_ogres(2013)DVB.mkv
Format : Matroska
Format version : Version 2
File size : 2.14 GiB
Duration : 1 h 32 min
Overall bit rate mode : Variable
Overall bit rate : 3 299 kb/s
Movie name : Au bonheur des ogres
Released date : 2013-10-16
Encoded date : UTC 2018-01-13 10:48:46
Writing application : mkvmerge v19.0.0 ('Brave Captain') 64-bit
Writing library : libebml v1.3.5 + libmatroska v1.4.8
Cover : Yes
Attachments : cover.jpg / small_cover.jpg
ACTOR : Raphael Personnaz, Berenice Bejo, Guillaume de Tonquedec
DIRECTOR : Nicolas Bary
GENRE : Comedy, Drama
IMDB : tt2129887
KEYWORDS : rutracker.org
LAW_RATING : 16+
Video
ID : 1
Format : MPEG Video
Format version : Version 2
Format profile : Main@Main
Format settings : BVOP
Format settings, BVOP : Yes
Format settings, Matrix : Default
Format settings, GOP : M=4, N=12
Format settings, picture structure : Frame
Codec ID : V_MPEG2
Codec ID/Info : MPEG 1 or 2 Video
Duration : 1 h 32 min
Bit rate mode : Variable
Bit rate : 3 042 kb/s
Maximum bit rate : 15.0 Mb/s
Width : 720 pixels
Height : 576 pixels
Display aspect ratio : 16:9
Active Format Description : Letterbox 16:9 image
Frame rate mode : Constant
Frame rate : 25.000 FPS
Standard : PAL
Color space : YUV
Chroma subsampling : 4:2:0
Bit depth : 8 bits
Scan type : Interlaced
Scan order : Top Field First
Compression mode : Lossy
Bits/(Pixel*Frame) : 0.293
Stream size : 1.97 GiB (92%)
Default : Yes
Forced : No
Audio
ID : 2
Format : MPEG Audio
Format version : Version 1
Format profile : Layer 2
Format settings : Joint stereo / Intensity Stereo + MS Stereo
Codec ID : A_MPEG/L2
Codec ID/Hint : MP2
Duration : 1 h 32 min
Bit rate mode : Constant
Bit rate : 192 kb/s
Channel(s) : 2 channels
Sampling rate : 48.0 kHz
Compression mode : Lossy
Stream size : 127 MiB (6%)
Language : French
Default : Yes
Forced : No
Text #1
ID : 3
Format : UTF-8
Codec ID : S_TEXT/UTF8
Codec ID/Info : UTF-8 Plain Text
Language : Russian
Default : No
Forced : No
Text #2
ID : 4
Format : UTF-8
Codec ID : S_TEXT/UTF8
Codec ID/Info : UTF-8 Plain Text
Language : English
Default : No
Forced : No
Text #3
ID : 5
Format : UTF-8
Codec ID : S_TEXT/UTF8
Codec ID/Info : UTF-8 Plain Text
Language : French
Default : No
Forced : No
Text #4
ID : 6
Format : UTF-8
Codec ID : S_TEXT/UTF8
Codec ID/Info : UTF-8 Plain Text
Language : German
Default : No
Forced : No
Text #5
ID : 7
Format : UTF-8
Codec ID : S_TEXT/UTF8
Codec ID/Info : UTF-8 Plain Text
Language : Dutch
Default : No
Forced : No

Скриншот c названием фильма

Скриншоты


Резервные скриншоты


- [4'044]
[cybertorrent.ru].t4429.torrent 
Торрент: Зарегистрирован [ 2018-02-17 04:38 ] · FEB015D719ADB3E96EAA5522C564B057C9A533C7

Скачать .torrent

Скачать

22 KB

Статус: проверено
Скачан: 0 раз
Размер: 2,14 GB
Профиль [ЛС]
Показать сообщения:    

Текущее время: 24-Май 19:32

Часовой пояс: UTC ± 0



Вы не можете начинать темы
Вы не можете отвечать на сообщения
Вы не можете редактировать свои сообщения
Вы не можете удалять свои сообщения
Вы не можете голосовать в опросах
Вы не можете прикреплять файлы к сообщениям
Вы можете скачивать файлы