Статистика раздачи
Размер:  2,23 GB   |    Зарегистрирован:  3 месяца 12 дней   |    Скачан:  0 раз
Сидов:  22  [  0 KB/s  ]   Личеров:  2  [  0 KB/s  ]  
 
   
 
 

lopster ®

Пол:
Не указан
Стаж:
3 месяца 12 дней
Сообщений:
612

Ёлки / Open Matte
Жанр: комедия
Год выпуска: 2010
Продолжительность: 01:25:05
Режиссёр: Тимур Бекмамбетов, Александр Войтинский, Александр Андрющенко
В ролях: Иван Ургант, Сергей Походаев, Алина Булынко, Сергей Светлаков, Артур Смольянинов, Екатерина Вилкова, Мария Порошина, Дато Бахтадзе, Вера Брежнева, Никита Пресняков и др.
Описание: События самой новогодней комедии ЁЛКИ происходят в 11 городах: Калининграде, Казани, Перми, Уфе, Бавлах, Екатеринбурге, Красноярске, Якутске, Новосибирске, Санкт-Петербурге и Москве. Герои фильма — таксист и поп-дива, бизнесмен и актер, сноубордист и лыжник, студент и пенсионерка, пожарный и директриса, вор и милиционер, гастарбайтер и президент России. Все они оказываются в самый канун Нового года в очень непростой ситуации, выйти из которой им поможет только чудо… или Теория шести рукопожатий, согласно которой каждый человек на земле знает другого через шесть знакомых.
Доп. информация:
Запись от - GambitX
Сэмпл: http://multi-up.com/1177890
Качество видео: DVB
Формат видео: MPEG-TS
Видео: 720x576@1024x576 (16:9), 25 fps, MPEG-2 ~3380 kbps, 0.32 bit/pixel
Аудио: 48 kHz, MPEG Audio Layer 2, 2/0 (L,R) ch, ~192 kbps

MediaInfo

General
ID : 1 (0x1)
Complete name : Елки.2010.Open.Matte.DVB.ts
Format : MPEG-TS
File size : 2.23 GiB
Duration : 1 h 25 min
Overall bit rate mode : Variable
Overall bit rate : 3 760 kb/s
Video
ID : 333 (0x14D)
Menu ID : 1 (0x1)
Format : MPEG Video
Format version : Version 2
Format profile : Main@Main
Format settings : CustomMatrix / BVOP
Format settings, BVOP : Yes
Format settings, Matrix : Custom
Format settings, GOP : M=3, N=36
Format settings, picture st : Frame
Codec ID : 2
Duration : 1 h 25 min
Bit rate mode : Variable
Bit rate : 3 380 kb/s
Maximum bit rate : 15.0 Mb/s
Width : 720 pixels
Height : 576 pixels
Display aspect ratio : 16:9
Frame rate : 25.000 FPS
Standard : PAL
Color space : YUV
Chroma subsampling : 4:2:0
Bit depth : 8 bits
Scan type : Interlaced
Scan order : Top Field First
Compression mode : Lossy
Bits/(Pixel*Frame) : 0.326
Time code of first frame : 00:00:00:00
Time code source : Group of pictures header
GOP, Open/Closed : Open
GOP, Open/Closed of first f : Closed
Stream size : 2.01 GiB (90%)
Audio
ID : 413 (0x19D)
Menu ID : 1 (0x1)
Format : MPEG Audio
Format version : Version 1
Format profile : Layer 2
Codec ID : 3
Duration : 1 h 25 min
Bit rate mode : Constant
Bit rate : 192 kb/s
Channel(s) : 2 channels
Sampling rate : 48.0 kHz
Frame rate : 41.667 FPS (1152 SPF)
Compression mode : Lossy
Stream size : 117 MiB (5%)
Language : Russian

Скриншот c названием фильма

Скриншоты

[cybertorrent.ru].t448.torrent 
Торрент: Зарегистрирован [ 2018-02-15 15:48 ] · FF95D2DF79F78D10FCF5DB917EAC4C5F2ED417B9

Скачать .torrent

Скачать

45 KB

Статус: проверено
Скачан: 0 раз
Размер: 2,23 GB
Профиль [ЛС]
Показать сообщения:    

Текущее время: 27-Май 21:18

Часовой пояс: UTC ± 0



Вы не можете начинать темы
Вы не можете отвечать на сообщения
Вы не можете редактировать свои сообщения
Вы не можете удалять свои сообщения
Вы не можете голосовать в опросах
Вы не можете прикреплять файлы к сообщениям
Вы можете скачивать файлы