Статистика раздачи
Размер:  1,47 GB   |    Зарегистрирован:  3 месяца 11 дней   |    Скачан:  0 раз

Полного источника не было: Никогда

 
   
 
 

lopster ®

Пол:
Не указан
Стаж:
3 месяца 11 дней
Сообщений:
612

Ёлки 2- Год выпуска: 2011
Страна: Россия
Студия: Bazelevs
Жанр: мелодрама, комедия, семейный-Продолжительность: 01:40:19-Режиссёры: Александр Баранов, Александр Котт, Дмитрий Киселёв, Лео Габриадзе
В ролях: Сергей Светлаков, Иван Ургант, Вера Галушка, Сергей Безруков, Владимир Меньшов, Гоша Куценко, Александр Головин, Виктор Вержбицкий, Алексей Петренко, Пётр Фёдоров мл., Никита Пресняков, Анна Чиповская, Павел Баршак, Ирина Алферова, Елена Плаксина, Константин Хабенский, Галина Коньшина, Анна Хилькевич, Алёна Константинова, Дмитрий Гогу, Анастасия Сметанина, Алексей Дмитриев, Инга Оболдина, Александр Домогаров мл., Валерия Стреляева и др.-Описание: Незадолго до Нового года Боря теряет память, и единственной зацепкой, которая может помочь, является надпись «З. Г.», которую он обнаруживает на руке. В это же время капитан полиции пытается решить проблемы личного характера и разлучить родную дочь и ее молодого человека, два экстремала и их любимая бабушка из подъезда снова готовятся к членовредительским подвигам, а Вера Брежнева опять сводит с ума сильную половину человечества, а конкретно — рядового Бондарева, бывшего таксиста.-КиноПоиск | IMDb | Sample-Качество: BDRip-AVC (Источник: Elki-2.2011.MPEG-2.BluRay-Remux(1080p))
Формат: MKV
Видео: x264, 896x504 (16:9), 23.976 fps, ~1705 kbps avg, 0.157 bit/pixel
Аудио: Русский 48.0 KHz, AC3, 3/2 (L,C,R,l,r) + LFE ch, ~384.00 kbps avg
Субтитры: русские, английские-

Релиз


Рип - whip93.

Сравнение скриншотов

Source vs. Encode

MediaInfo | x264 log

x264 log

---[Information] [28.12.2017 17:41:42] raw [info]: 896x504p 1:1 @ 24000/1001 fps (cfr)
---[Information] [28.12.2017 17:41:42] x264 [info]: using SAR=1/1
---[Information] [28.12.2017 17:41:42] x264 [info]: using cpu capabilities: MMX2 SSE2Fast SSSE3 SSE4.2 AVX
---[Information] [28.12.2017 17:41:42] x264 [info]: profile High, level 4.1
---[Information] [28.12.2017 21:23:41] x264 [info]: frame I:1360 Avg QP:17.77 size: 61870
---[Information] [28.12.2017 21:23:41] x264 [info]: frame P:35268 Avg QP:21.90 size: 17549
---[Information] [28.12.2017 21:23:41] x264 [info]: frame B:107689 Avg QP:24.99 size: 5382
---[Information] [28.12.2017 21:23:41] x264 [info]: consecutive B-frames: 3.4% 4.1% 13.2% 26.6% 12.7% 32.5% 3.3% 1.4% 1.3% 0.4% 0.3% 0.5% 0.1% 0.1% 0.1%
---[Information] [28.12.2017 21:23:41] x264 [info]: mb I I16..4: 9.4% 64.7% 25.8%
---[Information] [28.12.2017 21:23:41] x264 [info]: mb P I16..4: 1.8% 11.2% 1.9% P16..4: 45.7% 21.1% 6.9% 2.1% 0.4% skip: 9.0%
---[Information] [28.12.2017 21:23:41] x264 [info]: mb B I16..4: 0.2% 1.4% 0.2% B16..8: 33.1% 12.2% 2.0% direct: 4.3% skip:46.6% L0:41.1% L1:43.6% BI:15.4%
---[Information] [28.12.2017 21:23:41] x264 [info]: 8x8 transform intra:74.0% inter:64.9%
---[Information] [28.12.2017 21:23:41] x264 [info]: coded y,uvDC,uvAC intra: 76.6% 78.1% 46.1% inter: 16.6% 14.4% 2.8%
---[Information] [28.12.2017 21:23:41] x264 [info]: i16 v,h,dc,p: 17% 15% 3% 65%
---[Information] [28.12.2017 21:23:41] x264 [info]: i8 v,h,dc,ddl,ddr,vr,hd,vl,hu: 12% 8% 5% 9% 13% 14% 13% 13% 14%
---[Information] [28.12.2017 21:23:41] x264 [info]: i4 v,h,dc,ddl,ddr,vr,hd,vl,hu: 14% 8% 6% 8% 14% 13% 13% 11% 13%
---[Information] [28.12.2017 21:23:41] x264 [info]: i8c dc,h,v,p: 32% 24% 21% 23%
---[Information] [28.12.2017 21:23:41] x264 [info]: Weighted P-Frames: Y:5.1% UV:3.0%
---[Information] [28.12.2017 21:23:41] x264 [info]: ref P L0: 51.1% 7.0% 15.4% 6.8% 4.8% 3.8% 3.1% 1.9% 1.6% 1.5% 1.4% 1.5% 0.1% 0.0%
---[Information] [28.12.2017 21:23:41] x264 [info]: ref B L0: 77.2% 9.1% 4.6% 2.6% 1.8% 1.4% 1.1% 0.8% 0.7% 0.5% 0.2%
---[Information] [28.12.2017 21:23:41] x264 [info]: ref B L1: 95.4% 4.6%
---[Information] [28.12.2017 21:23:41] x264 [info]: kb/s:1704.80
---[Information] [28.12.2017 21:23:41] encoded 144317 frames, 10.84 fps, 1704.80 kb/s
General
Unique ID : 330167366343875683654424639077009555298 (0xF863EBF7D0C2FB3C0805D1B9D83F7F62)
Complete name : F:\Ёлки.2.2011.BDRip.DD5.1.x264.-whip93.mkv
Format : Matroska
Format version : Version 4 / Version 2
File size : 1.47 GiB
Duration : 1h 40mn
Overall bit rate : 2 091 Kbps
Movie name : Ёлки 2 (2011) - Release by whip93
Encoded date : UTC 2017-12-28 17:40:51
Writing application : mkvmerge v19.0.0 ('Brave Captain') 64-bit
Writing library : libebml v1.3.5 + libmatroska v1.4.8
DURATION : 01:38:40.000000000
NUMBER_OF_FRAMES : 1318
NUMBER_OF_BYTES : 51664
_STATISTICS_WRITING_APP : mkvmerge v19.0.0 ('Brave Captain') 64-bit
_STATISTICS_WRITING_DATE_UT : 2017-12-28 17:40:51
_STATISTICS_TAGS : BPS DURATION NUMBER_OF_FRAMES NUMBER_OF_BYTES
Video
ID : 1
Format : AVC
Format/Info : Advanced Video Codec
Format profile : High@L4.1
Format settings, CABAC : Yes
Format settings, ReFrames : 12 frames
Codec ID : V_MPEG4/ISO/AVC
Duration : 1h 40mn
Bit rate : 1 705 Kbps
Width : 896 pixels
Height : 504 pixels
Display aspect ratio : 16:9
Frame rate mode : Constant
Frame rate : 23.976 fps
Color space : YUV
Chroma subsampling : 4:2:0
Bit depth : 8 bits
Scan type : Progressive
Bits/(Pixel*Frame) : 0.157
Stream size : 1.17 GiB (80%)
Title : Encoded by whip93
Writing library : x264 core 152 r2851 ba24899
Encoding settings : cabac=1 / ref=12 / deblock=1:-3:-3 / analyse=0x3:0x133 / me=umh / subme=11 / psy=1 / psy_rd=1.00:0.08 / mixed_ref=0 / me_range=64 / chroma_me=1 / trellis=2 / 8x8dct=1 / cqm=0 / deadzone=21,11 / fast_pskip=0 / chroma_qp_offset=-1 / threads=12 / lookahead_threads=3 / sliced_threads=0 / nr=0 / decimate=1 / interlaced=0 / bluray_compat=0 / constrained_intra=0 / bframes=14 / b_pyramid=2 / b_adapt=2 / b_bias=0 / direct=1 / weightb=1 / open_gop=0 / weightp=2 / keyint=240 / keyint_min=23 / scenecut=40 / intra_refresh=0 / rc_lookahead=90 / rc=2pass / mbtree=1 / bitrate=1705 / ratetol=1.0 / qcomp=0.72 / qpmin=0 / qpmax=69 / qpstep=4 / cplxblur=20.0 / qblur=0.5 / vbv_maxrate=50000 / vbv_bufsize=62500 / nal_hrd=none / filler=0 / ip_ratio=1.40 / aq=1:0.80
Language : Russian
Default : Yes
Forced : No
Color range : Limited
Color primaries : BT.709
Transfer characteristics : BT.709
Matrix coefficients : BT.709
Audio
ID : 2
Format : AC-3
Format/Info : Audio Coding 3
Mode extension : CM (complete main)
Format settings, Endianness : Big
Codec ID : A_AC3
Duration : 1h 40mn
Bit rate mode : Constant
Bit rate : 384 Kbps
Channel(s) : 6 channels
Channel positions : Front: L C R, Side: L R, LFE
Sampling rate : 48.0 KHz
Compression mode : Lossy
Stream size : 276 MiB (18%)
Language : Russian
Default : Yes
Forced : No
Text #1
ID : 3
Format : UTF-8
Codec ID : S_TEXT/UTF8
Codec ID/Info : UTF-8 Plain Text
Language : Russian
Default : No
Forced : No
Text #2
ID : 4
Format : UTF-8
Codec ID : S_TEXT/UTF8
Codec ID/Info : UTF-8 Plain Text
Language : English
Default : No
Forced : No
Menu
00:00:00.000 : ru:Глава 1
00:00:34.242 : ru:Глава 2
00:13:10.080 : ru:Глава 3
00:28:25.704 : ru:Глава 4
00:41:29.820 : ru:Глава 5
00:53:43.219 : ru:Глава 6
01:07:02.226 : ru:Глава 7
01:17:34.733 : ru:Глава 8
01:29:45.380 : ru:Глава 9

Скриншоты

-
[cybertorrent.ru].t475.torrent 
Торрент: Зарегистрирован [ 2018-02-15 15:48 ] · 3A5C2B85C79D282CC180FF4DB2538465B5856C9A

Скачать .torrent

Скачать

59 KB

Статус: проверено
Скачан: 0 раз
Размер: 1,47 GB
Профиль [ЛС]
Показать сообщения:    

Текущее время: 26-Май 17:25

Часовой пояс: UTC ± 0



Вы не можете начинать темы
Вы не можете отвечать на сообщения
Вы не можете редактировать свои сообщения
Вы не можете удалять свои сообщения
Вы не можете голосовать в опросах
Вы не можете прикреплять файлы к сообщениям
Вы можете скачивать файлы