Статистика раздачи
Размер:  1,37 GB   |    Зарегистрирован:  3 месяца 11 дней   |    Скачан:  0 раз
Сидов:  176  [  0 KB/s  ]   Личеров:  12  [  0 KB/s  ]  
 
   
 
 

lopster ®

Пол:
Не указан
Стаж:
3 месяца 11 дней
Сообщений:
612

Сказки рублевского леса
Жанр: мелодрама
Год выпуска: 2017
Продолжительность: 01:31:18
Режиссёр: Егор Юзбашев
В ролях: Дарья Щербакова, Андрей Фролов, Павел Южаков-Харланчук, Любовь Германова, Михаил Крылов, Олеся Пуховая

Описание: Уже который год Полину, заштатную актрису небольшого театра, выручает роль Снегурочки на Новый год. Но в этот год ей придется заменить своего перепившего друга-напарника и самой сыграть роль Деда Мороза. Полина оказывается на Рублевке. Однако по стечению обстоятельств вместо того, чтобы разыграть новогоднее представление перед детками богатых родителей, Полина вынуждена веселить взрослого, но несчастного владельца одного из домов. Каким же оказывается удивление героини, когда она опознает в "заказчике" своего бывшего жениха Антона! Ведь именно из-за его предательства жизнь Полины сложилась далеко не лучшим образом. Да, и он, как выясняется, несчастлив...
Кинопоиск
Sample
Качество видео: WEB-DLRip - Files-x
Формат видео: AVI
Видео: 720x400 (1.80:1), 25 fps, XviD build 73 ~1946 kbps avg, 0.270 bit/pixel
Аудио: 48 kHz, AC3 Dolby Digital, 2/0 (L,R) ch, ~192 kbps

MediaInfo

General
Complete name : D:\Сказки Рублевского леса-2017.WEB-DLRip.Files-x.avi
Format : AVI
Format/Info : Audio Video Interleave
File size : 1.37 GiB
Duration : 1h 31mn
Overall bit rate : 2 147 Kbps
Writing application : VirtualDubMod 1.5.10.3 | www.virtualdub-fr.org || (build 2550/release)
Writing library : VirtualDubMod build 2550/release
Video
ID : 0
Format : MPEG-4 Visual
Format profile : Advanced Simple@L5
Format settings, BVOP : 1
Format settings, QPel : No
Format settings, GMC : No warppoints
Format settings, Matrix : Custom
Codec ID : XVID
Codec ID/Hint : XviD
Duration : 1h 31mn
Bit rate : 1 946 Kbps
Width : 720 pixels
Height : 400 pixels
Display aspect ratio : 16:9
Frame rate : 25.000 fps
Color space : YUV
Chroma subsampling : 4:2:0
Bit depth : 8 bits
Scan type : Progressive
Compression mode : Lossy
Bits/(Pixel*Frame) : 0.270
Stream size : 1.24 GiB (91%)
Writing library : XviD 73
Audio
ID : 1
Format : AC-3
Format/Info : Audio Coding 3
Mode extension : CM (complete main)
Format settings, Endianness : Big
Codec ID : 2000
Duration : 1h 31mn
Bit rate mode : Constant
Bit rate : 192 Kbps
Channel count : 2 channels
Channel positions : Front: L R
Sampling rate : 48.0 KHz
Bit depth : 16 bits
Compression mode : Lossy
Stream size : 125 MiB (9%)
Alignment : Split accross interleaves
Interleave, duration : 40 ms (1.00 video frame)
Interleave, preload duration : 500 ms

Скриншот c названием фильма

Скриншоты


[cybertorrent.ru].t479.torrent 
Торрент: Зарегистрирован [ 2018-02-15 15:48 ] · 92A7C06EE9288E779116C69BAAB8D059D418B0D4

Скачать .torrent

Скачать

14 KB

Статус: проверено
Скачан: 0 раз
Размер: 1,37 GB
Профиль [ЛС]
Показать сообщения:    

Текущее время: 26-Май 17:25

Часовой пояс: UTC ± 0



Вы не можете начинать темы
Вы не можете отвечать на сообщения
Вы не можете редактировать свои сообщения
Вы не можете удалять свои сообщения
Вы не можете голосовать в опросах
Вы не можете прикреплять файлы к сообщениям
Вы можете скачивать файлы