Статистика раздачи
Размер:  528 MB   |    Зарегистрирован:  3 месяца 4 дня   |    Скачан:  0 раз

Полного источника не было: Никогда

 
   
 
 

Zima ®

Пол:
Не указан
Стаж:
3 месяца 6 дней
Сообщений:
293

Декабрь 41-го. Спасти Москву
Дата/Год выпуска: 2016
Страна: Россия
Жанр: историко-патриотический
Продолжительность: 00:38:50
Перевод: Не требуется
Русские субтитры: нет
Оригинальная аудиодорожка: русский
Режиссер: Евгений Кузнецов
Телеканал: ТВЦ
Описание: Осень 1941 года стала самым тяжёлым временем первого года Великой Отечественной войны. Враг прорвался к Москве, в середине октября вышел к окраинам города Химки, и генералы вермахта в мощные бинокли уже рассматривали башни Кремля. В таких условиях сама мысль снять документальный фильм о будущем контрнаступлении РККА выглядела безумной. Но именно в октябре в ставке Верховного Главнокомандующего была поддержана идея "кино о битве с врагом". Этот фильм, который в СССР назывался "Разгром немецких войск под Москвой", а в мировом прокате – "Москва наносит ответный удар", и сейчас смотрится на одном дыхании. А ведь каждый кадр этой легендарной картины снят в реальных условиях тяжелейших боёв с врагом. Участники: Михаил Мягков – доктор исторических наук, Алексей Исаев – военный историк, писатель, Борис Соколов – фронтовой кинооператор, Станислав Говорухин – кинорежиссёр, Владимир Долгих – член Совета Федерации Федерального Собрания РФ, Александр Кубышкин – доктор исторических наук и др.
качество: IPTVRip
формат: AVI
Видео: MPEG4, XviD, 720x400 (16:9), 25.000 fps, 1 700 Kbps (0.236 bit/pixel)
Аудио: AC-3, 48.0 KHz, 2 ch, 192 Kbps, CBR

MediaInfo

General
Complete name : C:\Users\User\Downloads\Декабрь 41-го. Спасти Москву.avi
Format : AVI
Format/Info : Audio Video Interleave
File size : 528 MiB
Duration : 38mn 49s
Overall bit rate : 1 901 Kbps
Writing application : VirtualDubMod 1.5.10.3 | www.virtualdub-fr.org || (build 2550/release)
Writing library : VirtualDubMod build 2550/release
Video
ID : 0
Format : MPEG-4 Visual
Format profile : Advanced Simple@L5
Format settings, BVOP : 2
Format settings, QPel : No
Format settings, GMC : No warppoints
Format settings, Matrix : Default (H.263)
Codec ID : XVID
Codec ID/Hint : XviD
Duration : 38mn 49s
Bit rate : 1 700 Kbps
Width : 720 pixels
Height : 400 pixels
Display aspect ratio : 16:9
Frame rate : 25.000 fps
Color space : YUV
Chroma subsampling : 4:2:0
Bit depth : 8 bits
Scan type : Progressive
Compression mode : Lossy
Bits/(Pixel*Frame) : 0.236
Stream size : 472 MiB (89%)
Writing library : XviD 73
Audio
ID : 1
Format : AC-3
Format/Info : Audio Coding 3
Mode extension : CM (complete main)
Format settings, Endianness : Big
Codec ID : 2000
Duration : 38mn 49s
Bit rate mode : Constant
Bit rate : 192 Kbps
Channel(s) : 2 channels
Channel positions : Front: L R
Sampling rate : 48.0 KHz
Bit depth : 16 bits
Compression mode : Lossy
Stream size : 53.3 MiB (10%)
Alignment : Split accross interleaves
Interleave, duration : 40 ms (1.00 video frame)
Interleave, preload duration : 500 ms

Скриншоты

[cybertorrent.ru].t4844.torrent 
Торрент: Зарегистрирован [ 2018-02-17 07:24 ] · 572A9CCB45611DB1545659F5395D77778BF12E30

Скачать .torrent

Скачать

11 KB

Статус: проверено
Скачан: 0 раз
Размер: 528 MB
Профиль [ЛС]
Показать сообщения:    

Текущее время: 21-Май 20:18

Часовой пояс: UTC ± 0



Вы не можете начинать темы
Вы не можете отвечать на сообщения
Вы не можете редактировать свои сообщения
Вы не можете удалять свои сообщения
Вы не можете голосовать в опросах
Вы не можете прикреплять файлы к сообщениям
Вы можете скачивать файлы