Статистика раздачи
Размер:  1,24 GB   |    Зарегистрирован:  2 дня   |    Скачан:  0 раз

Полного источника не было: Никогда

 
   
 
 

Tony ®

Пол:
Не указан
Стаж:
4 дня
Сообщений:
135

Cham and The Mad People Gang - Summerjam Festival
Страна: Jamaica
Жанр: Reggae, Dancehall, Reggae Fusion
Продолжительность: 00:22:18
Год выпуска: 2015 г.
Описание: Выступление на Summerjam 2015 13 июля
Треклист:
01. Ghetto Pledge
02. Rude Boy Pledge
03. Stronger
04. Man & Man / Babylon Bwoy
05. Could You Be Loved / Yardie Party
06. I'm Too Hot
07. Fighter
Качество : HDTVRip 720p
Контейнер: MKV
Видео кодек: H/264
Аудио кодек: AC3
Видео: AVC, 1272x720 (16:9), 25.000 fps, 7 319 Kbps
Аудио: AC-3, 48.0 KHz, 2 ch, 448 Kbps

MediaInfo

General
Unique ID : 21231795935102425385799762553776225577 (0xFF9185C2C5EE841B593A367BD81BD29)
Complete name : H:\Cham_and_the_mad_people_gang-summerjam_(2015)-720p-x264-2015-uva\Cham_and_the_mad_people_gang-summerjam_(2015)-720p-x264-2015-uva.mkv
Format : Matroska
Format version : Version 4 / Version 2
File size : 1.24 GiB
Duration : 22mn 18s
Overall bit rate : 7 925 Kbps
Encoded date : UTC 2015-07-27 18:45:59
Writing application : mkvmerge v7.7.0 ('Six Voices') 64bit built on Mar 1 2015 01:50:05
Writing library : libebml v1.3.1 + libmatroska v1.4.2
DURATION : 00:22:18.784000000
NUMBER_OF_FRAMES : 41837
NUMBER_OF_BYTES : 74971904
_STATISTICS_WRITING_APP : mkvmerge v7.7.0 ('Six Voices') 64bit built on Mar 1 2015 01:50:05
_STATISTICS_WRITING_DATE_UTC : 2015-07-27 18:45:59
_STATISTICS_TAGS : BPS DURATION NUMBER_OF_FRAMES NUMBER_OF_BYTES
Video
ID : 1
Format : AVC
Format/Info : Advanced Video Codec
Format profile : High@L4.1
Format settings, CABAC : Yes
Format settings, ReFrames : 5 frames
Codec ID : V_MPEG4/ISO/AVC
Duration : 22mn 18s
Bit rate : 7 319 Kbps
Width : 1 272 pixels
Height : 720 pixels
Display aspect ratio : 16:9
Original display aspect ratio : 16:9
Frame rate mode : Constant
Frame rate : 25.000 fps
Color space : YUV
Chroma subsampling : 4:2:0
Bit depth : 8 bits
Scan type : Progressive
Bits/(Pixel*Frame) : 0.320
Stream size : 1.14 GiB (92%)
Writing library : x264 core 146 r2538 121396c
Encoding settings : cabac=1 / ref=5 / deblock=1:0:0 / analyse=0x3:0x113 / me=umh / subme=9 / psy=1 / psy_rd=1.00:0.00 / mixed_ref=1 / me_range=24 / chroma_me=1 / trellis=1 / 8x8dct=1 / cqm=0 / deadzone=21,11 / fast_pskip=1 / chroma_qp_offset=-2 / threads=6 / lookahead_threads=1 / sliced_threads=0 / nr=0 / decimate=1 / interlaced=0 / bluray_compat=0 / constrained_intra=0 / bframes=16 / b_pyramid=2 / b_adapt=1 / b_bias=0 / direct=1 / weightb=1 / open_gop=0 / weightp=2 / keyint=250 / keyint_min=25 / scenecut=40 / intra_refresh=0 / rc_lookahead=40 / rc=crf / mbtree=1 / crf=20.0 / qcomp=0.60 / qpmin=0 / qpmax=69 / qpstep=4 / ip_ratio=1.40 / aq=1:1.00
Default : Yes
Forced : Yes
Audio
ID : 2
Format : AC-3
Format/Info : Audio Coding 3
Mode extension : CM (complete main)
Format settings, Endianness : Big
Codec ID : A_AC3
Duration : 22mn 18s
Bit rate mode : Constant
Bit rate : 448 Kbps
Channel(s) : 2 channels
Channel positions : Front: L R
Sampling rate : 48.0 KHz
Bit depth : 16 bits
Compression mode : Lossy
Delay relative to video : 13ms
Stream size : 71.5 MiB (6%)
Default : Yes
Forced : Yes

Скриншоты



[cybertorrent.ru].t14211.torrent 
Торрент: Зарегистрирован [ 2018-02-20 18:42 ] · 26B6467E29C21C29425D856F606764DA645A1804

Скачать .torrent

Скачать

13 KB

Статус: проверено
Скачан: 0 раз
Размер: 1,24 GB
terms.php
Профиль [ЛС]
Показать сообщения:    

Текущее время: 22-Фев 18:45

Часовой пояс: UTC ± 0



Вы не можете начинать темы
Вы не можете отвечать на сообщения
Вы не можете редактировать свои сообщения
Вы не можете удалять свои сообщения
Вы не можете голосовать в опросах
Вы не можете прикреплять файлы к сообщениям
Вы можете скачивать файлы