Статистика раздачи
Размер:  1,15 GB   |    Зарегистрирован:  18 часов   |    Скачан:  0 раз

Полного источника не было: Никогда

 
   
 
 

safari ®

Пол:
Не указан
Стаж:
5 дней
Сообщений:
235

Дневник женщины-убийцы / La encadenada / Diary of an Erotic Murderess
Страна: Испания, Италия
Жанр: триллер
Год выпуска: 1975
Продолжительность: 01:26:37
Перевод: Одноголосый закадровый ССК+
Субтитры: нет
Режиссер: Мануэль Мур-Оти / Manuel Mur Oti
Композитор: Карло Савина / Carlo Savina
В ролях: Мариза Мелл, Ричард Конте, Хуан Рибо, Энтони Штеффен, Ричард Барон, Лили Мурати, Карла Кало, Бени Деус, Кармен Маура, Кетти Эриель
Описание:
Смерть матери стала для сына богатого бизнесмена Александра сильнейшим потрясением. Марк перестал разговаривать, начал проявлять немотивированную агрессию и все сильнее и сильнее погружался в депрессию. Чтобы помочь юноше, его отец пригласил в свое поместье психолога Джину, не подозревая, что под ее личиной скрывается брачная аферистка. Естественно, через некоторое время Александр влюбляется в очаровательную женщину, но те же самые чувства к Джине проснулись и у его сына…
Доп. информация:
IMDB
http://www.imdb.com/title/tt0070031/
Кинопоиск
https://www.kinopoisk.ru/film/132240/
Сэмпл: http://multi-up.com/1107442
Качество видео: VHSRip
Формат видео: AVI
Видео: DivX, 640 х 352, 16:9, 23.976 fps, 1 495 Kbps
Аудио: MP3, 44.1 KHz, 192 Kbps, 2 channels, русский
Аудио 2: AC-3, 48.0 KHz, 192 Kbps, 2 channels, английский

MediaInfo

General
Complete name : D:\РАЗДАЧИ\Diary of an Erotic Murderess 1975\Дневник женщины убийцы 1975\Дневник женщины убийцы 1975.avi
Format : AVI
Format/Info : Audio Video Interleave
File size : 1.15 GiB
Duration : 1h 26mn
Overall bit rate : 1 894 Kbps
Writing application : VirtualDubMod 1.5.10.2 (build 2540/release)
Writing library : VirtualDubMod build 2540/release
Video
ID : 0
Format : MPEG-4 Visual
Format profile : Simple@L1
Format settings, BVOP : No
Format settings, QPel : No
Format settings, GMC : No warppoints
Format settings, Matrix : Default (H.263)
Codec ID : DIVX
Codec ID/Info : Project Mayo
Codec ID/Hint : DivX 4
Duration : 1h 26mn
Bit rate : 1 495 Kbps
Width : 640 pixels
Height : 352 pixels
Display aspect ratio : 16:9
Frame rate : 23.976 fps
Color space : YUV
Chroma subsampling : 4:2:0
Bit depth : 8 bits
Scan type : Progressive
Compression mode : Lossy
Bits/(Pixel*Frame) : 0.277
Stream size : 926 MiB (79%)
Writing library : Lavc53.33.0
Audio #1
ID : 1
Format : MPEG Audio
Format version : Version 1
Format profile : Layer 3
Mode : Joint stereo
Mode extension : MS Stereo
Codec ID : 55
Codec ID/Hint : MP3
Duration : 1h 26mn
Bit rate mode : Constant
Bit rate : 192 Kbps
Channel(s) : 2 channels
Sampling rate : 44.1 KHz
Compression mode : Lossy
Stream size : 119 MiB (10%)
Alignment : Split accross interleaves
Interleave, duration : 42 ms (1.00 video frame)
Interleave, preload duration : 500 ms
Writing library : LAME3.99r
Encoding settings : -m j -V 4 -q 3 -lowpass 18.6 -b 192
Audio #2
ID : 2
Format : AC-3
Format/Info : Audio Coding 3
Mode extension : CM (complete main)
Format settings, Endianness : Big
Codec ID : 2000
Duration : 1h 26mn
Bit rate mode : Constant
Bit rate : 192 Kbps
Channel(s) : 2 channels
Channel positions : Front: L R
Sampling rate : 48.0 KHz
Bit depth : 16 bits
Compression mode : Lossy
Stream size : 119 MiB (10%)
Alignment : Split accross interleaves
Interleave, duration : 42 ms (1.00 video frame)
Interleave, preload duration : 500 ms

Скриншот c названием фильма

Мои раздачи на рутрекере http://rutracker.org/forum/tracker.php?rid=10591342
Релиз:
[cybertorrent.ru].t15229.torrent 
Торрент: Зарегистрирован [ Сегодня, в 00:25 ] · 96E4A7B3A516BB1EB85A89D3F2FA7D081575D783

Скачать .torrent

Скачать

46 KB

Статус: проверено
Скачан: 0 раз
Размер: 1,15 GB
terms.php
Профиль [ЛС]
Показать сообщения:    

Текущее время: 21-Фев 18:40

Часовой пояс: UTC ± 0



Вы не можете начинать темы
Вы не можете отвечать на сообщения
Вы не можете редактировать свои сообщения
Вы не можете удалять свои сообщения
Вы не можете голосовать в опросах
Вы не можете прикреплять файлы к сообщениям
Вы можете скачивать файлы