Статистика раздачи
Размер:  856 MB   |    Зарегистрирован:  3 месяца 4 дня   |    Скачан:  0 раз

Полного источника не было: Никогда

 
   
 
 

GAN ®

Пол:
Не указан
Стаж:
3 месяца 9 дней
Сообщений:
159

Haïti direct : big band, mini jazz & twoubadou sounds, 1960-1978
Жанр: Big band, Compas, Merengue, Beguine
Носитель: CD
Страна-производитель диска (релиза): UK
Год издания: 2014
Издатель (лейбл): Strut
Номер по каталогу: STRUT093CD
Страна исполнителя (группы): Haiti
Аудиокодек: FLAC (*.flac)
Тип рипа: tracks+.cue
Битрейт аудио: lossless
Продолжительность: 02:20:50
Источник (релизер): Собственныи Диск (Poupsicot88)
Наличие сканов в содержимом раздачи: нет

CD 1

Продолжительность: 01:09:47
Треклист:
01. Ibo combo - Ti garçon
02. Les Vikings de la Guadeloupe - Choc vikings
03. Les Animateurs - Ti machine
04. Les Loups noirs - Pile ou face
05. Rodrigue Milien et son groupe combite créole - 6ème leçon
06. Bossa combo - Line
07. Les Fantaisistes de carrefour - Panno caye nan bois chêne
08. Ti Paris - Cochon St. Antoine
09. Les Shleu-shleu - Compas X
10. Râ Râ de Léogane - Gadé moune yo
11. Les Difficiles de Pétion-Ville - An septième
12. Tabou combo - Ce pas
13. Les Pachas du canapé vert - Désordre musical
14. Scorpio universel - Ti Lu Lupe

Лог создания рипа

Exact Audio Copy V1.1 from 23. June 2015
EAC extraction logfile from 29. August 2016, 11:31
Various artists / Haïti direct : big band, mini jazz & twoubadou sounds, 1960-1978
Used drive : PLEXTOR DVDR PX-891SA Adapter: 1 ID: 0
Read mode : Secure
Utilize accurate stream : Yes
Defeat audio cache : Yes
Make use of C2 pointers : No
Read offset correction : 6
Overread into Lead-In and Lead-Out : No
Fill up missing offset samples with silence : Yes
Delete leading and trailing silent blocks : No
Null samples used in CRC calculations : Yes
Used interface : Native Win32 interface for Win NT & 2000
Gap handling : Appended to previous track
Used output format : User Defined Encoder
Selected bitrate : 1024 kBit/s
Quality : High
Add ID3 tag : No
Command line compressor : C:\Program Files (x86)\Exact Audio Copy\FLAC\FLAC.EXE
Additional command line options : -6 -V -T "ARTIST=%artist%" -T "TITLE=%title%" -T "ALBUM=%albumtitle%" -T "DATE=%year%" -T "TRACKNUMBER=%tracknr%" -T "GENRE=%genre%" -T "COMMENT=%comment%" -T "BAND=%albuminterpret%" -T "ALBUMARTIST=%albuminterpret%" -T "COMPOSER=%composer%" %haslyrics%--tag-from-file=LYRICS="%lyricsfile%"%haslyrics% -T "DISCNUMBER=%cdnumber%" -T "TOTALDISCS=%totalcds%" -T "TOTALTRACKS=%numtracks%" %hascover%--picture="%coverfile%"%hascover% %source% -o %dest%
TOC of the extracted CD
Track | Start | Length | Start sector | End sector
---------------------------------------------------------
1 | 0:00.00 | 3:57.03 | 0 | 17777
2 | 3:57.03 | 4:21.40 | 17778 | 37392
3 | 8:18.43 | 6:56.61 | 37393 | 68653
4 | 15:15.29 | 5:13.20 | 68654 | 92148
5 | 20:28.49 | 5:58.65 | 92149 | 119063
6 | 26:27.39 | 5:29.02 | 119064 | 143740
7 | 31:56.41 | 4:30.40 | 143741 | 164030
8 | 36:27.06 | 3:33.27 | 164031 | 180032
9 | 40:00.33 | 3:58.36 | 180033 | 197918
10 | 43:58.69 | 4:22.12 | 197919 | 217580
11 | 48:21.06 | 5:53.42 | 217581 | 244097
12 | 54:14.48 | 2:44.34 | 244098 | 256431
13 | 56:59.07 | 4:53.24 | 256432 | 278430
14 | 61:52.31 | 7:54.59 | 278431 | 314039
Track 1
Filename D:\Torrents\Compilations\Strut\Haïti direct - Big band, mini jazz & twoubadou sounds, 1960-1978 (2013)\CD 1\01. Ibo combo - Ti garçon.wav
Pre-gap length 0:00:02.00
Peak level 97.6 %
Extraction speed 5.3 X
Track quality 99.9 %
Test CRC A8F2D3F7
Copy CRC A8F2D3F7
Accurately ripped (confidence 9) [36CAC739] (AR v2)
Copy OK
Track 2
Filename D:\Torrents\Compilations\Strut\Haïti direct - Big band, mini jazz & twoubadou sounds, 1960-1978 (2013)\CD 1\02. Les Vikings de la Guadeloupe - Choc vikings.wav
Pre-gap length 0:00:02.00
Peak level 96.5 %
Extraction speed 6.6 X
Track quality 100.0 %
Test CRC 5F73A6E2
Copy CRC 5F73A6E2
Accurately ripped (confidence 9) [E57BD5C3] (AR v2)
Copy OK
Track 3
Filename D:\Torrents\Compilations\Strut\Haïti direct - Big band, mini jazz & twoubadou sounds, 1960-1978 (2013)\CD 1\03. Les Animateurs - Ti machine.wav
Pre-gap length 0:00:02.00
Peak level 92.7 %
Extraction speed 7.7 X
Track quality 100.0 %
Test CRC F6E3D726
Copy CRC F6E3D726
Accurately ripped (confidence 9) [47AF4ACC] (AR v2)
Copy OK
Track 4
Filename D:\Torrents\Compilations\Strut\Haïti direct - Big band, mini jazz & twoubadou sounds, 1960-1978 (2013)\CD 1\04. Les Loups noirs - Pile ou face.wav
Pre-gap length 0:00:02.00
Peak level 96.5 %
Extraction speed 8.2 X
Track quality 100.0 %
Test CRC 756E62D9
Copy CRC 756E62D9
Accurately ripped (confidence 9) [7DE10FA9] (AR v2)
Copy OK
Track 5
Filename D:\Torrents\Compilations\Strut\Haïti direct - Big band, mini jazz & twoubadou sounds, 1960-1978 (2013)\CD 1\05. Rodrigue Milien et son groupe combite créole - 6ème leçon.wav
Pre-gap length 0:00:02.00
Peak level 97.6 %
Extraction speed 8.3 X
Track quality 99.9 %
Test CRC 72D16C62
Copy CRC 72D16C62
Accurately ripped (confidence 9) [2D2CEF35] (AR v2)
Copy OK
Track 6
Filename D:\Torrents\Compilations\Strut\Haïti direct - Big band, mini jazz & twoubadou sounds, 1960-1978 (2013)\CD 1\06. Bossa combo - Line.wav
Pre-gap length 0:00:02.00
Peak level 94.4 %
Extraction speed 8.7 X
Track quality 99.9 %
Test CRC 797E4863
Copy CRC 797E4863
Accurately ripped (confidence 9) [66055829] (AR v2)
Copy OK
Track 7
Filename D:\Torrents\Compilations\Strut\Haïti direct - Big band, mini jazz & twoubadou sounds, 1960-1978 (2013)\CD 1\07. Les Fantaisistes de carrefour - Panno caye nan bois chêne.wav
Pre-gap length 0:00:02.00
Peak level 96.5 %
Extraction speed 9.7 X
Track quality 100.0 %
Test CRC A175A292
Copy CRC A175A292
Accurately ripped (confidence 9) [DCDA2CE3] (AR v2)
Copy OK
Track 8
Filename D:\Torrents\Compilations\Strut\Haïti direct - Big band, mini jazz & twoubadou sounds, 1960-1978 (2013)\CD 1\08. Ti Paris - Cochon St. Antoine.wav
Pre-gap length 0:00:02.00
Peak level 96.5 %
Extraction speed 9.7 X
Track quality 100.0 %
Test CRC 8FB68748
Copy CRC 8FB68748
Accurately ripped (confidence 9) [4AE98663] (AR v2)
Copy OK
Track 9
Filename D:\Torrents\Compilations\Strut\Haïti direct - Big band, mini jazz & twoubadou sounds, 1960-1978 (2013)\CD 1\09. Les Shleu-shleu - Compas X.wav
Pre-gap length 0:00:02.00
Peak level 86.8 %
Extraction speed 10.3 X
Track quality 100.0 %
Test CRC 7F1F8AFC
Copy CRC 7F1F8AFC
Accurately ripped (confidence 9) [8CBE4CC4] (AR v2)
Copy OK
Track 10
Filename D:\Torrents\Compilations\Strut\Haïti direct - Big band, mini jazz & twoubadou sounds, 1960-1978 (2013)\CD 1\10. Râ Râ de Léogane - Gadé moune yo.wav
Pre-gap length 0:00:02.00
Peak level 97.6 %
Extraction speed 10.7 X
Track quality 100.0 %
Test CRC 4F0AE49D
Copy CRC 4F0AE49D
Accurately ripped (confidence 9) [FB3CC23B] (AR v2)
Copy OK
Track 11
Filename D:\Torrents\Compilations\Strut\Haïti direct - Big band, mini jazz & twoubadou sounds, 1960-1978 (2013)\CD 1\11. Les Difficiles de Pétion-Ville - An septième.wav
Pre-gap length 0:00:02.00
Peak level 96.9 %
Extraction speed 10.6 X
Track quality 99.9 %
Test CRC 57F42DDD
Copy CRC 57F42DDD
Accurately ripped (confidence 9) [235065A8] (AR v2)
Copy OK
Track 12
Filename D:\Torrents\Compilations\Strut\Haïti direct - Big band, mini jazz & twoubadou sounds, 1960-1978 (2013)\CD 1\12. Tabou combo - Ce pas.wav
Peak level 93.0 %
Extraction speed 10.7 X
Track quality 100.0 %
Test CRC C7009661
Copy CRC C7009661
Accurately ripped (confidence 9) [D97E2CC0] (AR v2)
Copy OK
Track 13
Filename D:\Torrents\Compilations\Strut\Haïti direct - Big band, mini jazz & twoubadou sounds, 1960-1978 (2013)\CD 1\13. Les Pachas du canapé vert - Désordre musical.wav
Pre-gap length 0:00:02.00
Peak level 96.5 %
Extraction speed 11.9 X
Track quality 100.0 %
Test CRC 4D7A93B0
Copy CRC 4D7A93B0
Accurately ripped (confidence 9) [92A0FD31] (AR v2)
Copy OK
Track 14
Filename D:\Torrents\Compilations\Strut\Haïti direct - Big band, mini jazz & twoubadou sounds, 1960-1978 (2013)\CD 1\14. Scorpio universel - Ti Lu Lupe.wav
Pre-gap length 0:00:02.00
Peak level 96.3 %
Extraction speed 12.1 X
Track quality 99.9 %
Test CRC 513BD43C
Copy CRC 513BD43C
Accurately ripped (confidence 9) [5DE0BBCF] (AR v2)
Copy OK
All tracks accurately ripped
No errors occurred
End of status report
==== Log checksum 50D75596B9A4F76A2C3D83B7D69CB825E72B0B7B01AC9CD7515F717566E07648 ====

Содержание индексной карты (.CUE)

REM GENRE "Big band, Compas, Merengue, Beguine"
REM DATE 2013
REM DISCID B5105B0E
REM COMMENT "ExactAudioCopy v1.1"
PERFORMER "Various artists"
TITLE "Haïti direct : big band, mini jazz & twoubadou sounds, 1960-1978"
FILE "01. Ibo combo - Ti garçon.wav" WAVE
TRACK 01 AUDIO
TITLE "Ti garçon"
PERFORMER "Ibo combo"
INDEX 01 00:00:00
TRACK 02 AUDIO
TITLE "Choc vikings"
PERFORMER "Les Vikings de la Guadeloupe"
INDEX 00 03:55:03
FILE "02. Les Vikings de la Guadeloupe - Choc vikings.wav" WAVE
INDEX 01 00:00:00
TRACK 03 AUDIO
TITLE "Ti machine"
PERFORMER "Les Animateurs"
INDEX 00 04:19:40
FILE "03. Les Animateurs - Ti machine.wav" WAVE
INDEX 01 00:00:00
TRACK 04 AUDIO
TITLE "Pile ou face"
PERFORMER "Les Loups noirs"
INDEX 00 06:54:61
FILE "04. Les Loups noirs - Pile ou face.wav" WAVE
INDEX 01 00:00:00
TRACK 05 AUDIO
TITLE "6ème leçon"
PERFORMER "Rodrigue Milien et son groupe combite créole"
INDEX 00 05:11:20
FILE "05. Rodrigue Milien et son groupe combite créole - 6ème leçon.wav" WAVE
INDEX 01 00:00:00
TRACK 06 AUDIO
TITLE "Line"
PERFORMER "Bossa combo"
INDEX 00 05:56:65
FILE "06. Bossa combo - Line.wav" WAVE
INDEX 01 00:00:00
TRACK 07 AUDIO
TITLE "Panno caye nan bois chêne"
PERFORMER "Les Fantaisistes de carrefour"
INDEX 00 05:27:02
FILE "07. Les Fantaisistes de carrefour - Panno caye nan bois chêne.wav" WAVE
INDEX 01 00:00:00
TRACK 08 AUDIO
TITLE "Cochon St. Antoine"
PERFORMER "Ti Paris"
INDEX 00 04:28:40
FILE "08. Ti Paris - Cochon St. Antoine.wav" WAVE
INDEX 01 00:00:00
TRACK 09 AUDIO
TITLE "Compas X "
PERFORMER "Les Shleu-shleu"
INDEX 00 03:31:27
FILE "09. Les Shleu-shleu - Compas X.wav" WAVE
INDEX 01 00:00:00
TRACK 10 AUDIO
TITLE "Gadé moune yo"
PERFORMER "Râ Râ de Léogane"
INDEX 00 03:56:36
FILE "10. Râ Râ de Léogane - Gadé moune yo.wav" WAVE
INDEX 01 00:00:00
TRACK 11 AUDIO
TITLE "An septième"
PERFORMER "Les Difficiles de Pétion-Ville"
INDEX 00 04:20:12
FILE "11. Les Difficiles de Pétion-Ville - An septième.wav" WAVE
INDEX 01 00:00:00
FILE "12. Tabou combo - Ce pas.wav" WAVE
TRACK 12 AUDIO
TITLE "Ce pas"
PERFORMER "Tabou combo"
INDEX 01 00:00:00
TRACK 13 AUDIO
TITLE "Désordre musical"
PERFORMER "Les Pachas du canapé vert"
INDEX 00 02:42:34
FILE "13. Les Pachas du canapé vert - Désordre musical.wav" WAVE
INDEX 01 00:00:00
TRACK 14 AUDIO
TITLE "Ti Lu Lupe"
PERFORMER "Scorpio universel"
INDEX 00 04:51:24
FILE "14. Scorpio universel - Ti Lu Lupe.wav" WAVE
INDEX 01 00:00:00

CD 2

Продолжительность: 01:11:03
Треклист:
01. Raoul Guillaume & Son groupe - Mal élevé
02. Super jazz des jeunes - Coté moune yo
03. Pierre Blain & Orchestre Murat Pierre - Jouc li jou
04. Ensemble meridional des Cayes - Calma pèlerin
05. Ensemble étoile du soir - Messe quatre heures
06. Nemours Jean-Baptiste - Ti Carole
07. Orchestre septentrional - Baptême ratt
08. Trio select - Ensemble select en action
09. Les Ambassadeurs - Homenaje a los Ambajadores
10. Les Frères Déjean - L'Artibonite
11. Le Caribbean sextet - Suspan'n
12. Djet-X - Jive Turkey
13. Super ensemble Webert Sicot - Ambiance cadence
14. Orchestre Tropicana - Poun paciance

Лог создания рипа

Exact Audio Copy V1.1 from 23. June 2015
EAC extraction logfile from 29. August 2016, 14:27
Various artists / Haïti direct : big band, mini jazz & twoubadou sounds, 1960-1978
Used drive : PLEXTOR DVDR PX-891SA Adapter: 1 ID: 0
Read mode : Secure
Utilize accurate stream : Yes
Defeat audio cache : Yes
Make use of C2 pointers : No
Read offset correction : 6
Overread into Lead-In and Lead-Out : No
Fill up missing offset samples with silence : Yes
Delete leading and trailing silent blocks : No
Null samples used in CRC calculations : Yes
Used interface : Native Win32 interface for Win NT & 2000
Gap handling : Appended to previous track
Used output format : User Defined Encoder
Selected bitrate : 1024 kBit/s
Quality : High
Add ID3 tag : No
Command line compressor : C:\Program Files (x86)\Exact Audio Copy\FLAC\FLAC.EXE
Additional command line options : -6 -V -T "ARTIST=%artist%" -T "TITLE=%title%" -T "ALBUM=%albumtitle%" -T "DATE=%year%" -T "TRACKNUMBER=%tracknr%" -T "GENRE=%genre%" -T "COMMENT=%comment%" -T "BAND=%albuminterpret%" -T "ALBUMARTIST=%albuminterpret%" -T "COMPOSER=%composer%" %haslyrics%--tag-from-file=LYRICS="%lyricsfile%"%haslyrics% -T "DISCNUMBER=%cdnumber%" -T "TOTALDISCS=%totalcds%" -T "TOTALTRACKS=%numtracks%" %hascover%--picture="%coverfile%"%hascover% %source% -o %dest%
TOC of the extracted CD
Track | Start | Length | Start sector | End sector
---------------------------------------------------------
1 | 0:00.00 | 3:30.15 | 0 | 15764
2 | 3:30.15 | 3:17.70 | 15765 | 30609
3 | 6:48.10 | 2:30.14 | 30610 | 41873
4 | 9:18.24 | 10:01.73 | 41874 | 87021
5 | 19:20.22 | 3:00.12 | 87022 | 100533
6 | 22:20.34 | 6:04.56 | 100534 | 127889
7 | 28:25.15 | 3:05.59 | 127890 | 141823
8 | 31:30.74 | 3:00.61 | 141824 | 155384
9 | 34:31.60 | 7:50.61 | 155385 | 190695
10 | 42:22.46 | 6:01.31 | 190696 | 217801
11 | 48:24.02 | 4:25.03 | 217802 | 237679
12 | 52:49.05 | 5:40.70 | 237680 | 263249
13 | 58:30.00 | 5:59.54 | 263250 | 290228
14 | 64:29.54 | 6:33.26 | 290229 | 319729
Track 1
Filename D:\Torrents\Compilations\Strut\Haïti direct - Big band, mini jazz & twoubadou sounds, 1960-1978 (2013)\CD 2\01. Raoul Guillaume & Son groupe - Mal élevé.wav
Pre-gap length 0:00:02.00
Peak level 98.7 %
Extraction speed 5.8 X
Track quality 100.0 %
Test CRC C2118893
Copy CRC C2118893
Accurately ripped (confidence 9) [A67EAF47] (AR v2)
Copy OK
Track 2
Filename D:\Torrents\Compilations\Strut\Haïti direct - Big band, mini jazz & twoubadou sounds, 1960-1978 (2013)\CD 2\02. Super jazz des jeunes - Coté moune yo.wav
Pre-gap length 0:00:02.00
Peak level 93.7 %
Extraction speed 6.3 X
Track quality 100.0 %
Test CRC B282A6DD
Copy CRC B282A6DD
Accurately ripped (confidence 9) [B1D2A82B] (AR v2)
Copy OK
Track 3
Filename D:\Torrents\Compilations\Strut\Haïti direct - Big band, mini jazz & twoubadou sounds, 1960-1978 (2013)\CD 2\03. Pierre Blain & Orchestre Murat Pierre - Jouc li jou.wav
Pre-gap length 0:00:02.00
Peak level 100.0 %
Extraction speed 6.3 X
Track quality 100.0 %
Test CRC C07A9E09
Copy CRC C07A9E09
Accurately ripped (confidence 9) [F92C359F] (AR v2)
Copy OK
Track 4
Filename D:\Torrents\Compilations\Strut\Haïti direct - Big band, mini jazz & twoubadou sounds, 1960-1978 (2013)\CD 2\04. Ensemble meridional des Cayes - Calma pèlerin.wav
Pre-gap length 0:00:02.00
Peak level 100.0 %
Extraction speed 8.2 X
Track quality 100.0 %
Test CRC F0ABE1E6
Copy CRC F0ABE1E6
Accurately ripped (confidence 9) [C0CD79E8] (AR v2)
Copy OK
Track 5
Filename D:\Torrents\Compilations\Strut\Haïti direct - Big band, mini jazz & twoubadou sounds, 1960-1978 (2013)\CD 2\05. Ensemble étoile du soir - Messe quatre heures.wav
Pre-gap length 0:00:02.00
Peak level 100.0 %
Extraction speed 7.9 X
Track quality 100.0 %
Test CRC AA7C0961
Copy CRC AA7C0961
Accurately ripped (confidence 9) [790EDF64] (AR v2)
Copy OK
Track 6
Filename D:\Torrents\Compilations\Strut\Haïti direct - Big band, mini jazz & twoubadou sounds, 1960-1978 (2013)\CD 2\06. Nemours Jean-Baptiste - Ti Carole.wav
Pre-gap length 0:00:02.00
Peak level 97.6 %
Extraction speed 9.2 X
Track quality 100.0 %
Test CRC 465C6185
Copy CRC 465C6185
Accurately ripped (confidence 9) [965D556E] (AR v2)
Copy OK
Track 7
Filename D:\Torrents\Compilations\Strut\Haïti direct - Big band, mini jazz & twoubadou sounds, 1960-1978 (2013)\CD 2\07. Orchestre septentrional - Baptême ratt.wav
Pre-gap length 0:00:02.00
Peak level 97.6 %
Extraction speed 8.9 X
Track quality 100.0 %
Test CRC 643DC63D
Copy CRC 643DC63D
Accurately ripped (confidence 9) [8679F484] (AR v2)
Copy OK
Track 8
Filename D:\Torrents\Compilations\Strut\Haïti direct - Big band, mini jazz & twoubadou sounds, 1960-1978 (2013)\CD 2\08. Trio select - Ensemble select en action.wav
Pre-gap length 0:00:02.00
Peak level 96.5 %
Extraction speed 9.1 X
Track quality 100.0 %
Test CRC 58858FAF
Copy CRC 58858FAF
Accurately ripped (confidence 9) [9BAD783B] (AR v2)
Copy OK
Track 9
Filename D:\Torrents\Compilations\Strut\Haïti direct - Big band, mini jazz & twoubadou sounds, 1960-1978 (2013)\CD 2\09. Les Ambassadeurs - Homenaje a los Ambajadores.wav
Pre-gap length 0:00:02.00
Peak level 100.0 %
Extraction speed 10.7 X
Track quality 100.0 %
Test CRC 1F2675D4
Copy CRC 1F2675D4
Accurately ripped (confidence 9) [F5F9D6D3] (AR v2)
Copy OK
Track 10
Filename D:\Torrents\Compilations\Strut\Haïti direct - Big band, mini jazz & twoubadou sounds, 1960-1978 (2013)\CD 2\10. Les Frères Déjean - L'Artibonite.wav
Pre-gap length 0:00:02.00
Peak level 94.9 %
Extraction speed 11.1 X
Track quality 100.0 %
Test CRC 9E2D2A83
Copy CRC 9E2D2A83
Accurately ripped (confidence 9) [C27F5D31] (AR v2)
Copy OK
Track 11
Filename D:\Torrents\Compilations\Strut\Haïti direct - Big band, mini jazz & twoubadou sounds, 1960-1978 (2013)\CD 2\11. Le Caribbean sextet - Suspan'n.wav
Pre-gap length 0:00:02.00
Peak level 99.9 %
Extraction speed 11.2 X
Track quality 100.0 %
Test CRC 5BCD2E8F
Copy CRC 5BCD2E8F
Accurately ripped (confidence 9) [D7F04544] (AR v2)
Copy OK
Track 12
Filename D:\Torrents\Compilations\Strut\Haïti direct - Big band, mini jazz & twoubadou sounds, 1960-1978 (2013)\CD 2\12. Djet-X - Jive Turkey.wav
Pre-gap length 0:00:02.00
Peak level 96.7 %
Extraction speed 10.8 X
Track quality 99.9 %
Test CRC FF8A5ADE
Copy CRC FF8A5ADE
Accurately ripped (confidence 9) [CF23DFE0] (AR v2)
Copy OK
Track 13
Filename D:\Torrents\Compilations\Strut\Haïti direct - Big band, mini jazz & twoubadou sounds, 1960-1978 (2013)\CD 2\13. Super ensemble Webert Sicot - Ambiance cadence.wav
Pre-gap length 0:00:02.00
Peak level 100.0 %
Extraction speed 12.3 X
Track quality 100.0 %
Test CRC 2C6AFE73
Copy CRC 2C6AFE73
Accurately ripped (confidence 9) [685CD142] (AR v2)
Copy OK
Track 14
Filename D:\Torrents\Compilations\Strut\Haïti direct - Big band, mini jazz & twoubadou sounds, 1960-1978 (2013)\CD 2\14. Orchestre Tropicana - Poun paciance.wav
Pre-gap length 0:00:02.00
Peak level 96.5 %
Extraction speed 8.9 X
Track quality 100.0 %
Test CRC F0EFF23A
Copy CRC F0EFF23A
Accurately ripped (confidence 9) [E408A2DA] (AR v2)
Copy OK
All tracks accurately ripped
No errors occurred
End of status report
==== Log checksum 4ADF1DE8583B67C4079B52006DDC723FB25960FF04C3B0D9EE6FAC0C241273EA ====

Содержание индексной карты (.CUE)

REM GENRE "Big band, Compas, Merengue, Beguine"
REM DATE 2013
REM DISCID A410A70E
REM COMMENT "ExactAudioCopy v1.1"
PERFORMER "Various artists"
TITLE "Haïti direct : big band, mini jazz & twoubadou sounds, 1960-1978"
FILE "01. Raoul Guillaume & Son groupe - Mal élevé.wav" WAVE
TRACK 01 AUDIO
TITLE "Mal élevé"
PERFORMER "Raoul Guillaume & Son groupe"
INDEX 01 00:00:00
TRACK 02 AUDIO
TITLE "Coté moune yo"
PERFORMER "Super jazz des jeunes"
INDEX 00 03:28:15
FILE "02. Super jazz des jeunes - Coté moune yo.wav" WAVE
INDEX 01 00:00:00
TRACK 03 AUDIO
TITLE "Jouc li jou"
PERFORMER "Pierre Blain & Orchestre Murat Pierre"
INDEX 00 03:15:70
FILE "03. Pierre Blain & Orchestre Murat Pierre - Jouc li jou.wav" WAVE
INDEX 01 00:00:00
TRACK 04 AUDIO
TITLE "Calma pèlerin "
PERFORMER "Ensemble meridional des Cayes"
INDEX 00 02:28:14
FILE "04. Ensemble meridional des Cayes - Calma pèlerin.wav" WAVE
INDEX 01 00:00:00
TRACK 05 AUDIO
TITLE "Messe quatre heures "
PERFORMER "Ensemble étoile du soir"
INDEX 00 09:59:73
FILE "05. Ensemble étoile du soir - Messe quatre heures.wav" WAVE
INDEX 01 00:00:00
TRACK 06 AUDIO
TITLE "Ti Carole"
PERFORMER "Nemours Jean-Baptiste"
INDEX 00 02:58:12
FILE "06. Nemours Jean-Baptiste - Ti Carole.wav" WAVE
INDEX 01 00:00:00
TRACK 07 AUDIO
TITLE "Baptême ratt"
PERFORMER "Orchestre septentrional"
INDEX 00 06:02:56
FILE "07. Orchestre septentrional - Baptême ratt.wav" WAVE
INDEX 01 00:00:00
TRACK 08 AUDIO
TITLE "Ensemble select en action"
PERFORMER "Trio select"
INDEX 00 03:03:59
FILE "08. Trio select - Ensemble select en action.wav" WAVE
INDEX 01 00:00:00
TRACK 09 AUDIO
TITLE "Homenaje a los Ambajadores"
PERFORMER "Les Ambassadeurs"
INDEX 00 02:58:61
FILE "09. Les Ambassadeurs - Homenaje a los Ambajadores.wav" WAVE
INDEX 01 00:00:00
TRACK 10 AUDIO
TITLE "L'Artibonite"
PERFORMER "Les Frères Déjean"
INDEX 00 07:48:61
FILE "10. Les Frères Déjean - L'Artibonite.wav" WAVE
INDEX 01 00:00:00
TRACK 11 AUDIO
TITLE "Suspan'n "
PERFORMER "Le Caribbean sextet"
INDEX 00 05:59:31
FILE "11. Le Caribbean sextet - Suspan'n.wav" WAVE
INDEX 01 00:00:00
TRACK 12 AUDIO
TITLE "Jive Turkey "
PERFORMER "Djet-X"
INDEX 00 04:23:03
FILE "12. Djet-X - Jive Turkey.wav" WAVE
INDEX 01 00:00:00
TRACK 13 AUDIO
TITLE "Ambiance cadence"
PERFORMER "Super ensemble Webert Sicot"
INDEX 00 05:38:70
FILE "13. Super ensemble Webert Sicot - Ambiance cadence.wav" WAVE
INDEX 01 00:00:00
TRACK 14 AUDIO
TITLE "Poun paciance "
PERFORMER "Orchestre Tropicana"
INDEX 00 05:57:54
FILE "14. Orchestre Tropicana - Poun paciance.wav" WAVE
INDEX 01 00:00:00
[cybertorrent.ru].t15475.torrent 
Торрент: Зарегистрирован [ 2018-02-21 00:25 ] · A19D52743F075409F509D10443F795E6B6C2A1B3

Скачать .torrent

Скачать

20 KB

Статус: проверено
Скачан: 0 раз
Размер: 856 MB
Профиль [ЛС]
Показать сообщения:    

Текущее время: 25-Май 20:21

Часовой пояс: UTC ± 0



Вы не можете начинать темы
Вы не можете отвечать на сообщения
Вы не можете редактировать свои сообщения
Вы не можете удалять свои сообщения
Вы не можете голосовать в опросах
Вы не можете прикреплять файлы к сообщениям
Вы можете скачивать файлы